Telecharger Le Facteur sonne toujours deux fois [DVDRiP] French

(TRUEFRENCH = Vraie voix française)

Qualité BDRiP mkv | MULTiLANGUES (Avec TRUEFRENCH)

Le Facteur sonne toujours deux fois

Le Facteur sonne toujours deux fois

Le Facteur sonne toujours deux fois

Origine du film : Américain
Réalisateur : Bob Rafelson
Acteurs : Jack Nicholson, Jessica Lange, John Colicos
Genre : Policier, Drame, Thriller
Durée : 2h1min
Date de sortie : 26 août 1981
Année de production : 1981
Titre Original : The Postman Always Rings Twice
Note spectateurs : Le Facteur sonne toujours deux fois

; »>3,3/5 (294)
Bande annonce :

ccbc54dfc0299661300d63708fc790a4

19467017″>Cliquez-ici pour voir la bande annonce ccbc54dfc0299661300d63708fc790a4″> 19467017

ccbc54dfc0299661300d63708fc790a4

Le Facteur sonne toujours deux fois

Frank Chamber rencontre, lors de ses pérégrinations, Nick Smith, qui tient un café au bord de la route. Quand il voit Cora, la très jolie femme de Nick, il accepte le travail qu’il lui propose.
105357″ style= »display:inline; »>

Le Facteur sonne toujours deux fois

Format : MKV

Le Facteur sonne toujours deux fois

Le Facteur sonne toujours deux fois 1981 MULTI.BRRip.x264.AC3-HuSh

(1370 Mo)

Uptobox
Télécharger

Uploaded
Télécharger

TurboBit
Télécharger

Rapidgator
Télécharger

Uplea
Télécharger

1fichier
Télécharger

NFO :

Afficher / Masquer le texte 18d601f3d4ee70b258124aef79950660″ class= »text_spoiler » style= »display:none; »>■General

Unique ID : 248491098965986071621634992833596337394 (0xBAF1A5145093616EAA2DCE7B1761ACF2)

Complete name : H:Le.Facteur.Sonne.Toujours.Deux.Fois.1981.MULTI.BRRip.x264.AC3-HuSh.mkv

Format : Matroska

Format version : Version 2

File size : 1.37 GiB

Duration : 2h 1mn

Overall bit rate mode : Variable

Overall bit rate : 1 616 Kbps

Encoded date : UTC 2014-03-10 20:40:18

Writing application : mkvmerge v3.2.0 (‘Beginnings’) built on Feb 12 2010 16:46:17

Writing library : libebml v0.7.9 + libmatroska v0.8.1

Video

ID : 1

Format : AVC

Format/Info : Advanced Video Codec

Format profile : [email protected]

Format settings, CABAC : Yes

Format settings, ReFrames : 8 frames

Codec ID : V_MPEG4/ISO/AVC

Duration : 2h 1mn

Bit rate mode : Variable

Bit rate : 1 230 Kbps

Maximum bit rate : 17.5 Mbps

Width : 720 pixels

Height : 400 pixels

Display aspect ratio : 16:9

Frame rate mode : Constant

Frame rate : 23.976 fps

Color space : YUV

Chroma subsampling : 4:2:0

Bit depth : 8 bits

Scan type : Progressive

Bits/(Pixel*Frame) : 0.178

Stream size : 1.02 GiB (74%)

Writing library : x264 core 140 r2345

Encoding settings : cabac=1 / ref=8 / deblock=1:-1:-1 / analyse=0x3:0x133 / me=umh / subme=9 / psy=1 / psy_rd=1.00:0.00 / mixed_ref=1 / me_range=32 / chroma_me=1 / trellis=2 / 8x8dct=1 / cqm=0 / deadzone=21,11 / fast_pskip=0 / chroma_qp_offset=-2 / threads=6 / lookahead_threads=1 / sliced_threads=0 / nr=0 / decimate=1 / interlaced=0 / bluray_compat=0 / constrained_intra=0 / bframes=3 / b_pyramid=0 / b_adapt=2 / b_bias=0 / direct=3 / weightb=1 / open_gop=0 / weightp=2 / keyint=230 / keyint_min=23 / scenecut=40 / intra_refresh=0 / rc_lookahead=60 / rc=2pass / mbtree=1 / bitrate=1230 / ratetol=1.0 / qcomp=0.60 / qpmin=10 / qpmax=69 / qpstep=4 / cplxblur=20.0 / qblur=0.5 / vbv_maxrate=17500 / vbv_bufsize=17500 / nal_hrd=vbr / filler=0 / ip_ratio=1.40 / aq=1:1.00

Language : French

Default : Yes

Forced : No

Audio #1

ID : 2

Format : AC-3

Format/Info : Audio Coding 3

Mode extension : CM (complete main)

Format settings, Endianness : Big

Codec ID : A_AC3

Duration : 2h 1mn

Bit rate mode : Constant

Bit rate : 192 Kbps

Channel(s) : 1 channel

Channel positions : Front: C

Sampling rate : 48.0 KHz

Compression mode : Lossy

Stream size : 167 MiB (12%)

Language : French

Default : Yes

Forced : No

Audio #2

ID : 3

Format : AC-3

Format/Info : Audio Coding 3

Mode extension : CM (complete main)

Format settings, Endianness : Big

Codec ID : A_AC3

Duration : 2h 1mn

Bit rate mode : Constant

Bit rate : 192 Kbps

Channel(s) : 1 channel

Channel positions : Front: C

Sampling rate : 48.0 KHz

Compression mode : Lossy

Stream size : 167 MiB (12%)

Language : English

Default : No

Forced : No

Text #1

ID : 4

Format : UTF-8

Codec ID : S_TEXT/UTF8

Codec ID/Info : UTF-8 Plain Text

Title : team-hush.org

Language : French

Default : Yes

Forced : No

Text #2

ID : 5

Format : UTF-8

Codec ID : S_TEXT/UTF8

Codec ID/Info : UTF-8 Plain Text

Language : French

Default : No

Forced : No

Jeux Gratuit
15354131_1854970838071206_1069261547_o.png