Telecharger Le Fantôme de Barbe Noire [DVDRiP] French

(TRUEFRENCH = Vraie voix française)

Qualité DVDRiP | TRUEFRENCH

Le Fantôme de Barbe Noire

Le Fantôme de Barbe Noire

Origine du film : Américain
Réalisateur : Robert Stevenson
Acteurs : Suzanne Pleshette, Elsa Lanchester, Joby Baker
Genre : Comédie, Famille, Fantastique
Durée : 1h42min
Année de production : 1968
Titre Original : Blackbeard’s Ghost
Note spectateurs : Le Fantôme de Barbe Noire

; »>3,6/5 (45)

Le Fantôme de Barbe Noire

Condamné par sa dernière épouse à errer sur Terre jusqu’à ce qu’il accomplisse une bonne action, le fantôme du légendaire Barbe Noire décide d’aider une équipe d’athlétisme à gagner les épreuves en se servant de son invisibilité.
94339″ style= »display:inline; »>

Le Fantôme de Barbe Noire

Format : XviD

Le Fantôme de Barbe Noire

Le fantôme de Barbe Noire 1968 FRENCH.DVDRiP.XViD.AC3-HuSh

(1360 Mo)

Uptobox
Télécharger

Uploaded
Télécharger

TurboBit
Télécharger

Rapidgator
Télécharger

Uplea
Télécharger

1fichier
Télécharger

NFO :

Afficher / Masquer le texte 3079fcf9dd5346a8ab2a322d95ac086a » class= »text_spoiler » style= »display:none; »>■General

Complete name : G:TorrentLe.Fantome.De.Barbe.Noire.1968.FRENCH.DVDRiP.XViD.AC3-HuShLe.Fantome.De.Barbe.Noire.1968.FRENCH.DVDRiP.XViD.AC3-HuSh.mkv

Format : AVI

Format/Info : Audio Video Interleave

File size : 1.36 GiB

Duration : 1h 42mn

Overall bit rate : 1 904 Kbps

Movie name : TOUT HUSH SUR team-hush.org

Video

ID : 0

Format : MPEG-4 Visual

Format profile : Advanced [email protected]

Format settings, BVOP : 1

Format settings, QPel : No

Format settings, GMC : No warppoints

Format settings, Matrix : Default (MPEG)

Muxing mode : Packed bitstream

Codec ID : XVID

Codec ID/Hint : XviD

Duration : 1h 42mn

Bit rate : 1 702 Kbps

Width : 640 pixels

Height : 464 pixels

Display aspect ratio : 1.379

Frame rate : 25.000 fps

Color space : YUV

Chroma subsampling : 4:2:0

Bit depth : 8 bits

Scan type : Progressive

Compression mode : Lossy

Bits/(Pixel*Frame) : 0.229

Stream size : 1.22 GiB (89%)

Writing library : XviD 1.2.1 (UTC 2008-12-04)

Audio

ID : 1

Format : AC-3

Format/Info : Audio Coding 3

Mode extension : CM (complete main)

Format settings, Endianness : Big

Codec ID : 2000

Duration : 1h 42mn

Bit rate mode : Constant

Bit rate : 192 Kbps

Channel(s) : 2 channels

Channel positions : Front: L R

Sampling rate : 48.0 KHz

Compression mode : Lossy

Stream size : 141 MiB (10%)

Alignment : Split accross interleaves

Interleave, duration : 40 ms (1.00 video frame)

Interleave, preload duratio : 500 ms

Language : Undefined

Jeux Gratuit
15354131_1854970838071206_1069261547_o.png