Télécharger Le Goût de la vie French

(TRUEFRENCH = Vraie voix française)

Qualité DVDRiP | TRUEFRENCH

Le Goût de la vie

Le Goût de la vie

Origine du film : Américain, Australien
Réalisateur : Scott Hicks
Acteurs : Catherine Zeta-Jones, Aaron Eckhart, Abigail Breslin
Genre : Comédie dramatique, Romance
Durée : 1h43min
Date de sortie : 12 septembre 2007
Année de production : 2007
Titre Original : No Reservations
Distribué par : Warner Bros. France
Note presse : Le Goût de la vie 2,5/5
Note spectateurs : Le Goût de la vie 3,2/5 (1 700)
Bande annonce :

3a68c2288b81d14b9b42c9b1c6b2d60e

18741731″>Cliquez-ici pour voir la bande annonce 3a68c2288b81d14b9b42c9b1c6b2d60e »> 18741731

3a68c2288b81d14b9b42c9b1c6b2d60e

Le Goût de la vie

Kate règne sur les cuisines du 22 Bleecker, un des restaurants les plus cotés de Manhattan. Inventive et exigeante, précise et rigoureuse, elle mène sa petite équipe à la baguette et accomplit chaque soir de nouveaux prodiges dans une ambiance studieuse et concentrée. Consciente de ses mérites, elle se veut irréprochable et ne s’autorise aucun relâchement. Son perfectionnisme fait l’admiration de tous, mais intimide les hommes et décourage les avances. Fréquemment levée avant 5 heures, jamais couchée avant minuit, Kate mène une existence quasi monacale…Après la mort soudaine de sa soeur cadette, Kate recueille et prend en charge sa nièce, Zoe, 9 ans, en faisant de son mieux pour l’aider à surmonter l’épreuve. Mais la fibre maternelle lui fait cruellement défaut, et ses efforts les plus méritoires se heurtent à la résistance polie de la fillette, qui lui reproche d’en faire trop.De retour au restaurant après une semaine d’absence, Kate a la désagréable surprise de trouver en cuisine un nouveau sous-chef : Nick, blagueur et exubérant, braillant à pleins poumons des airs de Verdi et Puccini pour la plus grande joie du personnel…
104260″ style= »display:inline; »>

Le Goût de la vie

Format : XviD

Le Goût de la vie

(700 Mo)

Uptobox
Télécharger

Uploaded
Télécharger

TurboBit
Télécharger

Rapidgator
Télécharger

Uplea
Télécharger

1fichier
Télécharger

NFO :

Afficher / Masquer le texte cdac4b21df28a04ac977fe0894182521″ class= »text_spoiler » style= »display:none; »>General
Complete name : E:miponyLe Goût De La Vie .www.zone-telechargement.com.avi
Format : AVI
Format/Info : Audio Video Interleave
File size : 701 MiB
Duration : 1h 39mn
Overall bit rate : 980 Kbps
Writing library : VirtualDub build 18160/release

Video
ID : 0
Format : MPEG-4 Visual
Format settings, BVOP : 1
Format settings, QPel : No
Format settings, GMC : No warppoints
Format settings, Matrix : Default (H.263)
Muxing mode : Packed bitstream
Codec ID : DX50
Codec ID/Hint : DivX 5
Duration : 1h 39mn
Bit rate : 874 Kbps
Width : 624 pixels
Height : 256 pixels
Display aspect ratio : 2.40:1
Frame rate : 25.000 fps
Color space : YUV
Chroma subsampling : 4:2:0
Bit depth : 8 bits
Scan type : Progressive
Compression mode : Lossy
Bits/(Pixel*Frame) : 0.219
Stream size : 625 MiB (89%)
Writing library : DivX 6.8.0 (UTC 2007-12-04)

Audio
ID : 1
Format : MPEG Audio
Format version : Version 1
Format profile : Layer 3
Mode : Joint stereo
Mode extension : Intensity Stereo + MS Stereo
Codec ID : 55
Codec ID/Hint : MP3
Duration : 1h 39mn
Bit rate mode : Constant
Bit rate : 96.0 Kbps
Channel(s) : 2 channels
Sampling rate : 48.0 KHz
Compression mode : Lossy
Stream size : 68.7 MiB (10%)
Alignment : Split accross interleaves
Interleave, duration : 40 ms (1.00 video frame)
Interleave, preload duration : 500 ms

Jeux Gratuit
15354131_1854970838071206_1069261547_o.png