Telecharger Le Jour le plus long [DVDRiP] French

Qualité BLURAY 1080p | MULTiLANGUES | son DTS

Le Jour le plus long

Le Jour le plus long

Origine du film : Américain
Réalisateur : Ken Annakin
Acteurs : Paul Anka, Bourvil, Jean-Louis Barrault
Genre : Guerre, Drame, Action, Historique
Durée : 3h2min
Date de sortie : 25 septembre 1962
Année de production : 1962
Titre Original : The Longest Day
Distribué par : Moonriver Entertainment
Note spectateurs : Le Jour le plus long

; »>4/5 (5 924)
Bande annonce :

633d5b40f3cd7fdb3a32a42217508b3d

19444183″>Cliquez-ici pour voir la bande annonce 633d5b40f3cd7fdb3a32a42217508b3d »> 19444183

633d5b40f3cd7fdb3a32a42217508b3d

Le Jour le plus long

L’évènement militaire qui va mettre fin à la seconde guerre mondiale: le débarquement en Normandie par l’armée américaine.
102106″ style= »display:inline; »>

Le Jour le plus long

Format : MKV
Découpé avec : Winrar

Le Jour le plus long

Le.Jour.le.plus.long.1962.MULTi.1080p.BluRay.x264-DREAM

(20516 Mo)

[Liens Interchangeables entre hébergeurs: 20x 1000 Mo + 1x 516 Mo]

Uptobox
Télécharger

Uplea
Télécharger

1fichier
Télécharger

Uploaded
Télécharger

Rapidgator
Télécharger

TurboBit
Télécharger

[ Liens Premium ]

Uptobox
Télécharger

Uplea
Télécharger

1fichier
Télécharger

Uploaded
Télécharger

TurboBit
Télécharger

NFO :

Afficher / Masquer le texte 9fc5c14d35ed683cefeb117d4cf35fe5″ class= »text_spoiler » style= »display:none; »>Le.Jour.le.plus.long.1962.MULTi.1080p.BluRay.x264-DREAM.zone-telechargement.com.mkv
Format : Matroska
Format version : Version 2
File size : 20.0 GiB
Duration : 2h 58mn
Overall bit rate : 16.1 Mbps
Encoded date : UTC 2011-08-24 06:25:01
Writing application : mkvmerge v3.2.0 (‘Beginnings’) built on Feb 12 2010 16:46:17
Writing library : libebml v0.7.9 + libmatroska v0.8.1

Video
ID : 1
Format : AVC
Format/Info : Advanced Video Codec
Format profile : [email protected]
Format settings, CABAC : Yes
Format settings, ReFrames : 4 frames
Codec ID : V_MPEG4/ISO/AVC
Duration : 2h 58mn
Bit rate : 13.8 Mbps
Width : 1 920 pixels
Height : 1 080 pixels
Display aspect ratio : 16:9
Frame rate mode : Constant
Frame rate : 23.976 fps
Color space : YUV
Chroma subsampling : 4:2:0
Bit depth : 8 bits
Scan type : Progressive
Bits/(Pixel*Frame) : 0.278
Stream size : 16.8 GiB (84%)
Title : Le.Jour.le.plus.long.1962.MULTi.1080p.BluRay.x264-DREAM
Writing library : x264 core 115 r1995 c1e60b9
Encoding settings : cabac=1 / ref=4 / deblock=1:-3:-3 / analyse=0x3:0x113 / me=umh / subme=10 / psy=1 / psy_rd=1.00:0.00 / mixed_ref=1 / me_range=64 / chroma_me=1 / trellis=2 / 8x8dct=1 / cqm=0 / deadzone=21,11 / fast_pskip=0 / chroma_qp_offset=-2 / threads=12 / sliced_threads=0 / nr=0 / decimate=1 / interlaced=0 / bluray_compat=0 / constrained_intra=0 / bframes=5 / b_pyramid=2 / b_adapt=2 / b_bias=0 / direct=1 / weightb=1 / open_gop=0 / weightp=2 / keyint=250 / keyint_min=23 / scenecut=40 / intra_refresh=0 / rc_lookahead=50 / rc=2pass / mbtree=1 / bitrate=13800 / ratetol=1.0 / qcomp=0.60 / qpmin=10 / qpmax=51 / qpstep=4 / cplxblur=20.0 / qblur=0.5 / vbv_maxrate=50000 / vbv_bufsize=50000 / nal_hrd=none / ip_ratio=1.40 / aq=1:1.00
Language : English
Default : No
Forced : No

Audio #1
ID : 2
Format : DTS
Format/Info : Digital Theater Systems
Mode : 16
Format settings, Endianness : Big
Codec ID : A_DTS
Duration : 2h 58mn
Bit rate mode : Constant
Bit rate : 768 Kbps
Channel count : 6 channels
Channel positions : Front: L C R, Side: L R, LFE
Sampling rate : 48.0 KHz
Bit depth : 24 bits
Compression mode : Lossy
Stream size : 980 MiB (5%)
Language : French
Default : Yes
Forced : Yes

Audio #2
ID : 3
Format : DTS
Format/Info : Digital Theater Systems
Mode : 16
Format settings, Endianness : Big
Codec ID : A_DTS
Duration : 2h 58mn
Bit rate mode : Constant
Bit rate : 1 509 Kbps
Channel count : 6 channels
Channel positions : Front: L C R, Side: L R, LFE
Sampling rate : 48.0 KHz
Bit depth : 24 bits
Compression mode : Lossy
Stream size : 1.88 GiB (9%)
Language : English
Default : No
Forced : No

Text
ID : 4
Format : VobSub
Muxing mode : zlib
Codec ID : S_VOBSUB
Codec ID/Info : The same subtitle format used on DVDs
Language : French
Default : No
Forced : No