Telecharger Le Jour se lève [DVDRiP] French

Qualité BLURAY 720p | FRENCH | son DTS

Le Jour se lève

Le Jour se lève

Origine du film : Français
Réalisateur : Marcel Carné
Acteurs : Jean Gabin, Jules Berry, Arletty
Genre : Drame, Romance
Durée : 1h33min
Date de sortie : 9 juin 1939
Année de production : 1939
Distribué par : StudioCanal
Note spectateurs : Le Jour se lève

; »>3,9/5 (581)
Bande annonce :

66dc3ff274b3295e8c68f3ef1fa82c87

19547704″>Cliquez-ici pour voir la bande annonce 66dc3ff274b3295e8c68f3ef1fa82c87″> 19547704

66dc3ff274b3295e8c68f3ef1fa82c87

Le Jour se lève

Une forte dispute éclate dans une maison, des bruits de lutte se font entendre, des cris, des coups… Puis un coup de feu ! François a tiré sur Valentin. Ce dernier convoitait la belle Clara. François, barricadé et encerclé par la police, se remémore alors toute l’histoire qui a conduit à ce drame.
99821″ style= »display:inline; »>

Le Jour se lève

Format : MKV
Découpé avec : Winrar

Le Jour se lève

Le.Jour.Se.Leve.1939.FRENCH.720p.BluRay.DTS.x264-PTN

(7534 Mo)

[Liens Interchangeables entre hébergeurs: 7x 1000 Mo + 1x 534 Mo]

Uptobox
Télécharger

Uplea
Télécharger

1fichier
Télécharger

Uploaded
Télécharger

Rapidgator
Télécharger

TurboBit
Télécharger

[ Liens Premium ]

Uptobox
Télécharger

Uplea
Télécharger

1fichier
Télécharger

Uploaded
Télécharger

TurboBit
Télécharger

NFO :

Afficher / Masquer le texte 042880479ab06d264eed6a58b8ef06f9″ class= »text_spoiler » style= »display:none; »>Le.Jour.Se.Leve.1939.FRENCH.720p.BluRay.DTS.x264-PTN.zone-telechargement.com.mkv
Format : Matroska
Format version : Version 4 / Version 2
File size : 7.36 GiB
Duration : 1h 31mn
Overall bit rate : 11.5 Mbps
Encoded date : UTC 2014-11-22 18:11:00
Writing application : mkvmerge v6.3.0 (‘You can’t stop me!’) built on Jun 28 2013 20:09:41
Writing library : libebml v1.3.0 + libmatroska v1.4.0

Video
ID : 1
Format : AVC
Format/Info : Advanced Video Codec
Format profile : [email protected]
Format settings, CABAC : Yes
Format settings, ReFrames : 11 frames
Codec ID : V_MPEG4/ISO/AVC
Duration : 1h 31mn
Bit rate : 10 000 Kbps
Width : 986 pixels
Height : 720 pixels
Display aspect ratio : 4:3
Frame rate mode : Constant
Frame rate : 24.000 fps
Color space : YUV
Chroma subsampling : 4:2:0
Bit depth : 8 bits
Scan type : Progressive
Bits/(Pixel*Frame) : 0.587
Stream size : 6.25 GiB (85%)
Writing library : x264 core 142 r2479 dd79a61
Encoding settings : cabac=1 / ref=11 / deblock=1:-3:-3 / analyse=0x3:0x133 / me=umh / subme=10 / psy=1 / psy_rd=1.10:0.00 / mixed_ref=1 / me_range=24 / chroma_me=1 / trellis=2 / 8x8dct=1 / cqm=0 / deadzone=21,11 / fast_pskip=0 / chroma_qp_offset=-2 / threads=6 / lookahead_threads=1 / sliced_threads=0 / nr=0 / decimate=0 / interlaced=0 / bluray_compat=0 / constrained_intra=0 / bframes=8 / b_pyramid=2 / b_adapt=2 / b_bias=0 / direct=3 / weightb=1 / open_gop=0 / weightp=2 / keyint=250 / keyint_min=24 / scenecut=40 / intra_refresh=0 / rc=2pass / mbtree=0 / bitrate=10000 / ratetol=1.0 / qcomp=0.60 / qpmin=0 / qpmax=69 / qpstep=4 / cplxblur=20.0 / qblur=0.5 / ip_ratio=1.40 / pb_ratio=1.30 / aq=2:0.80
Language : French
Default : Yes
Forced : No

Audio
ID : 2
Format : DTS
Format/Info : Digital Theater Systems
Mode : 16
Format settings, Endianness : Big
Codec ID : A_DTS
Duration : 1h 31mn
Bit rate mode : Constant
Bit rate : 1 509 Kbps
Channel(s) : 2 channels
Channel positions : Front: L R
Sampling rate : 48.0 KHz
Bit depth : 24 bits
Compression mode : Lossy
Stream size : 988 MiB (13%)
Language : French
Default : No
Forced : No