Telecharger Le Kid [DVDRiP] French

Qualité BLURAY 1080p | MUET

Le Kid

Le Kid

Origine du film : Américain
Réalisateur : Charles Chaplin
Acteurs : Charles Chaplin, Jackie Coogan, Edna Purviance
Genre : Comédie, Drame
Année de production : 1921
Titre Original : The Kid
Distribué par : MK2 Diffusion
Note presse : Le Kid 4,0/5
Note spectateurs : Le Kid

; »>4,3/5 (6 174)
Bande annonce :

3bccccd82d7c72114e7341050dc940dd

18767929″>Cliquez-ici pour voir la bande annonce 3bccccd82d7c72114e7341050dc940dd »> 18767929

3bccccd82d7c72114e7341050dc940dd

Le Kid

Un pauvre vitrier recueille un enfant abandonné par sa mère victime d’un séducteur. L’enfant casse des carreaux pour aider son père adoptif, qui l’arrache à des dames patronnesses, puis le rend à sa mere, devenue riche.
100701″ style= »display:inline; »>

Le Kid

Format : MKV
Découpé avec : Winrar

Le Kid

The.Kid.1921.FRENCH.1080p.BluRay.x264.AC3-R1

(4634 Mo)

[Liens Interchangeables entre hébergeurs: 4x 1000 Mo + 1x 634 Mo]

Uptobox
Télécharger

Uplea
Télécharger

1fichier
Télécharger

Uploaded
Télécharger

Rapidgator
Télécharger

TurboBit
Télécharger

[ Liens Premium ]

Uptobox
Télécharger

Uplea
Télécharger

1fichier
Télécharger

Uploaded
Télécharger

TurboBit
Télécharger

NFO :

Afficher / Masquer le texte 96c0f120845887eb4ec7e5abf55408cd » class= »text_spoiler » style= »display:none; »>The.Kid.1921.FRENCH.1080p.BluRay.x264.AC3-R1.mkv
Format : Matroska
Format version : Version 2
File size : 4.53 GiB
Duration : 52mn 42s
Overall bit rate : 12.3 Mbps
Movie name : The.Kid.1921.FRENCH.1080p.BluRay.x264.AC3-R1
Encoded date : UTC 2015-10-10 08:54:09
Writing application : mkvmerge v5.6.0 (‘Kenya Kane’) built on May 28 2012 06:47:39
Writing library : libebml v1.2.2 + libmatroska v1.3.0

Video
ID : 1
Format : AVC
Format/Info : Advanced Video Codec
Format profile : [email protected]
Format settings, CABAC : Yes
Format settings, ReFrames : 4 frames
Muxing mode : Header stripping
Codec ID : V_MPEG4/ISO/AVC
Duration : 52mn 42s
Bit rate : 11.4 Mbps
Width : 1 436 pixels
Height : 1 080 pixels
Display aspect ratio : 4:3
Frame rate mode : Constant
Frame rate : 24.000 fps
Color space : YUV
Chroma subsampling : 4:2:0
Bit depth : 8 bits
Scan type : Progressive
Bits/(Pixel*Frame) : 0.306
Stream size : 4.20 GiB (93%)
Writing library : x264 core 132
Encoding settings : cabac=1 / ref=4 / deblock=1:-1:-1 / analyse=0x3:0x133 / me=umh / subme=10 / psy=1 / psy_rd=1,00:10,00 / mixed_ref=1 / me_range=24 / chroma_me=1 / trellis=2 / 8x8dct=1 / cqm=0 / deadzone=21,11 / fast_pskip=1 / chroma_qp_offset=-4 / threads=18 / lookahead_threads=2 / sliced_threads=0 / nr=0 / decimate=1 / interlaced=0 / bluray_compat=0 / constrained_intra=0 / bframes=6 / b_pyramid=2 / b_adapt=2 / b_bias=0 / direct=3 / weightb=1 / open_gop=0 / weightp=2 / keyint=240 / keyint_min=24 / scenecut=40 / intra_refresh=0 / rc_lookahead=60 / rc=crf / mbtree=1 / crf=18,0 / qcomp=0,60 / qpmin=3 / qpmax=69 / qpstep=4 / ip_ratio=1,40 / aq=1:1,00
Language : English
Default : Yes
Forced : No
Color primaries : BT.709
Transfer characteristics : BT.709
Matrix coefficients : BT.709

Audio
ID : 2
Format : AC-3
Format/Info : Audio Coding 3
Mode extension : CM (complete main)
Format settings, Endianness : Big
Muxing mode : Header stripping
Codec ID : A_AC3
Duration : 52mn 42s
Bit rate mode : Constant
Bit rate : 640 Kbps
Channel(s) : 2 channels
Channel positions : Front: L R
Sampling rate : 48.0 KHz
Bit depth : 16 bits
Compression mode : Lossy
Stream size : 241 MiB (5%)
Default : Yes
Forced : No