Telecharger Le Magicien d'Oz [DVDRiP] French

(TRUEFRENCH = Vraie voix française)

(AC3 = Dolby Digital 5.1)

BLURAY 1080p 3D | TRUEFRENCH | AC3

Le Magicien d'Oz

Le Magicien d'Oz

Le Magicien d'Oz

Origine du film : Américain
Réalisateur : Victor Fleming
Acteurs : Judy Garland, Frank Morgan, Ray Bolger
Genre : Aventure, Famille, Fantastique
Durée : 1h 41min
Date de sortie : 23 Octobre 2013
Année de production : 1939
Titre Original : The Wizard of Oz
Distribué par : Action Cinémas / Théâtre du Temple
Note presse : Le Magicien d'Oz 3,6/5
Note spectateurs : Le Magicien d'Oz

; »>3,7/5 (2 146)
Bande annonce :

8253908663517300aa880dbb64830b07

19424346″>Cliquez-ici pour voir la bande annonce 8253908663517300aa880dbb64830b07″> 19424346

8253908663517300aa880dbb64830b07

Le Magicien d'Oz

Dorothy, jeune orpheline, vit chez son oncle et sa tante. Tout irait pour le mieux si l'institutrice ne détestait pas son chien. C'est alors que Dorothy fait un rêve où elle se trouve transportée au royaume magique des Munchkins à la recherche de son chien. Les Munchkins sont des nains protégés par la bonne fée du Nord mais menacés par la méchante fée de l'Ouest. Pour retrouver son chien, Dorothy doit s'emparer des chaussures rouges de la mauvaise fée et aller voir le magicien d'Oz dans son palais d'Emeraude.

Nom de la release : THE WIZARD OF OZ 3D 1080P FRENCH AC3 HALF-SBS LNA3D 36180″ style= »display:inline; »>

Qualité : BLURAY 1080p 3D
Format : MKV
Langue : Français
Découpé avec : Winrar
Nombre de fichiers : 8 Fichiers
Taille des fichiers : 999 Mo 343 Mo
Taille totale : 7336 Mo

[Liens Interchangeables]

1fichier
Télécharger

Uptobox
Télécharger

Free
Télécharger

Uploaded
Télécharger

Rapidgator
Télécharger

TurboBit
Télécharger

[ 1 lien Premium – 7,3 Go ]

1fichier Premium
Télécharger

Uptobox Premium
Télécharger

Free Premium
Télécharger

TurboBit Premium
Télécharger

[ 2 liens Premium – 4 Go 3,2 Go ]

Uploaded Premium
Partie 1
Partie 2

NFO :

Afficher / Masquer le texte ba4703e306d9d62ca49cf95b9dedc993″ class= »text_spoiler » style= »display:none; »>Format Video : MKV
Format Audio : AC3
Doublage :VFF
Langue : FRANCAIS
Sous-titres : aucun
Source: :BLURAY NATIF

General
Complete name : D:new releaseTHE WIZARD OF OZ 3D 1080P FRENCH AC3 HALF-SBS LNA3DTHE WIZARD OF OZ 3D 1080P FRENCH AC3 HALF-SBS LNA3D .mkv
Format : Matroska
Format version : Version 2
File size : 7.16 GiB
Duration : 1h 41mn
Overall bit rate : 10.1 Mbps
Writing application : libmatroska 1.3.0
Writing library : SolveigMM Matroska Muxer Version 1.0.1208.20

Video
ID : 1
Format : AVC
Format/Info : Advanced Video Codec
Format profile : [email protected]
Format settings, CABAC : Yes
Format settings, ReFrames : 2 frames
Codec ID : V_MPEG4/ISO/AVC
Duration : 1h 41mn
Bit rate : 9 437 Kbps
Width : 1 920 pixels
Height : 1 080 pixels
Display aspect ratio : 16:9
Frame rate mode : Constant
Frame rate : 23.976 fps
Color space : YUV
Chroma subsampling : 4:2:0
Bit depth : 8 bits
Scan type : Progressive
Bits/(Pixel*Frame) : 0.190
Stream size : 6.70 GiB (94%)
Writing library : x264 core
Language : English
Default : No
Forced : No
Color primaries : BT.709
Transfer characteristics : BT.709
Matrix coefficients : BT.709

Audio
ID : 2
Format : AC-3
Format/Info : Audio Coding 3
Mode extension : CM (complete main)
Format settings, Endianness : Big
Codec ID : A_AC3
Duration : 1h 41mn
Bit rate mode : Constant
Bit rate : 448 Kbps
Channel(s) : 6 channels
Channel positions : Front: L C R, Side: L R, LFE
Sampling rate : 48.0 KHz
Bit depth : 16 bits
Compression mode : Lossy
Stream size : 326 MiB (4%)
Language : FRANCAIS
Default : No
Forced : No

Jeux Gratuit
15354131_1854970838071206_1069261547_o.png