Telecharger Le Miroir a deux faces [DVDRiP] French

Qualité BLURAY 720p | FRENCH | son DTS

Le Miroir a deux faces

Le Miroir a deux faces

Origine du film : Français
Réalisateur : André Cayatte
Acteurs : Michèle Morgan, Bourvil, Ivan Desny
Genre : Drame
Durée : 1h36min
Date de sortie : 15 octobre 1958
Année de production : 1958
Distribué par : Gaumont
Note spectateurs : Le Miroir a deux faces

; »>3,7/5 (63)

Le Miroir a deux faces

Tardivet, personnage mesquin, épouse par la voie des petites annonces Marie-Josée, dont le physique est disgracieux. Après quelques années, Marie-Josée change de visage grâce à la chirurgie esthétique, malgré l’interdiction de son mari, qui ne lui pardonnera jamais.
99735″ style= »display:inline; »>

Le Miroir a deux faces

Format : MKV
Découpé avec : Winrar

Le Miroir a deux faces

Le.Miroir.à.Deux.Faces.1958.FRENCH.720p.BluRay.x264-RT

(6589 Mo)

[Liens Interchangeables entre hébergeurs: 6x 1000 Mo + 1x 589 Mo]

Uptobox
Télécharger

Uplea
Télécharger

1fichier
Télécharger

Uploaded
Télécharger

Rapidgator
Télécharger

TurboBit
Télécharger

[ Liens Premium ]

Uptobox
Télécharger

Uplea
Télécharger

1fichier
Télécharger

Uploaded
Télécharger

TurboBit
Télécharger

NFO :

Afficher / Masquer le texte c9b5afac37d74e4d820d0930e1415968″ class= »text_spoiler » style= »display:none; »>Le.Miroir.à.Deux.Faces.1958.FRENCH.720p.BluRay.x264-RT.zone-telechargement.com.mkv
Format : Matroska
Format version : Version 4 / Version 2
File size : 6.43 GiB
Duration : 1h 37mn
Overall bit rate : 9 445 Kbps
Encoded date : UTC 2014-10-31 15:43:46
Writing application : mkvmerge v6.3.0 (‘You can’t stop me!’) built on Jun 28 2013 20:09:41
Writing library : libebml v1.3.0 + libmatroska v1.4.0

Video
ID : 1
Format : AVC
Format/Info : Advanced Video Codec
Format profile : [email protected]
Format settings, CABAC : Yes
Format settings, ReFrames : 9 frames
Codec ID : V_MPEG4/ISO/AVC
Duration : 1h 37mn
Bit rate : 8 489 Kbps
Width : 1 194 pixels
Height : 720 pixels
Display aspect ratio : 1.658
Frame rate mode : Constant
Frame rate : 24.000 fps
Color space : YUV
Chroma subsampling : 4:2:0
Bit depth : 8 bits
Scan type : Progressive
Bits/(Pixel*Frame) : 0.411
Stream size : 5.78 GiB (90%)
Title : ?????????? ??????? / Le miroir à deux faces.1958
Writing library : x264 core 142 r2431 ac76440
Encoding settings : cabac=1 / ref=9 / deblock=1:-3:-3 / analyse=0x3:0x113 / me=umh / subme=11 / psy=1 / psy_rd=1.00:0.00 / mixed_ref=1 / me_range=32 / chroma_me=1 / trellis=2 / 8x8dct=1 / cqm=0 / deadzone=21,11 / fast_pskip=1 / chroma_qp_offset=-2 / threads=12 / lookahead_threads=3 / sliced_threads=0 / nr=0 / decimate=1 / interlaced=0 / bluray_compat=0 / constrained_intra=0 / bframes=16 / b_pyramid=2 / b_adapt=2 / b_bias=0 / direct=1 / weightb=1 / open_gop=0 / weightp=2 / keyint=250 / keyint_min=24 / scenecut=40 / intra_refresh=0 / rc_lookahead=40 / rc=crf / mbtree=0 / crf=16.0 / qcomp=0.65 / qpmin=0 / qpmax=32 / qpstep=4 / vbv_maxrate=50000 / vbv_bufsize=62500 / crf_max=0.0 / nal_hrd=none / filler=0 / ip_ratio=1.20 / pb_ratio=1.15 / aq=1:0.40
Language : French
Default : Yes
Forced : No
Color primaries : BT.709
Transfer characteristics : BT.709
Matrix coefficients : BT.709

Audio
ID : 2
Format : DTS
Format/Info : Digital Theater Systems
Mode : 16
Format settings, Endianness : Big
Codec ID : A_DTS
Duration : 1h 37mn
Bit rate mode : Constant
Bit rate : 768 Kbps
Channel count : 2 channels
Channel positions : Front: L R
Sampling rate : 48.0 KHz
Bit depth : 16 bits
Compression mode : Lossy
Stream size : 536 MiB (8%)
Language : French
Default : No
Forced : No

Menu
00:00:00.000 : :Chapter 01
00:08:17.540 : :Chapter 02
00:16:14.375 : :Chapter 03
00:23:36.583 : :Chapter 04
00:30:36.250 : :Chapter 05
00:38:59.832 : :Chapter 06
00:47:09.832 : :Chapter 07
00:54:05.000 : :Chapter 08
01:02:11.208 : :Chapter 09
01:09:59.916 : :Chapter 10
01:18:52.625 : :Chapter 11
01:27:25.082 : :Chapter 12
01:37:31.791 : :Chapter 13

Jeux Gratuit
15354131_1854970838071206_1069261547_o.png