Telecharger Le monde de Nathan [BLURAY 720p] French

(TRUEFRENCH = Vraie voix française)

Qualité BLURAY 720p | TRUEFRENCH

Origine du film : Britannique
Réalisateur : Morgan Matthews
Acteurs : Asa Butterfield, Rafe Spall, Sally Hawkins
Genre : Drame, Comédie
Durée : 1h51min
Date de sortie : 10 juin 2015
Année de production : 2014
Titre Original : X+Y
Distribué par : Synergy Cinéma
Note presse : 3,1/5
Note spectateurs :

; »>3,8/5 (294)
Bande annonce :

b30617bfdb27da2dbee9a08d03397507

19552990″>Cliquez-ici pour voir la bande annonce b30617bfdb27da2dbee9a08d03397507″> 19552990

b30617bfdb27da2dbee9a08d03397507

Nathan est un adolescent souffrant de troubles autistiques et prodige en mathématiques. Brillant mais asocial, il fuit toute manifestation d’affection, même venant de sa mère. Il tisse pourtant une amitié étonnante avec son professeur anticonformiste Mr. Humphreys, qui le pousse à intégrer l’équipe britannique et participer aux prochaines Olympiades Internationales de Mathématiques. De la banlieue anglaise à Cambridge en passant par Taipei, la vie de Nathan pourrait bien prendre un tour nouveau…
101645″ style= »display:inline; »>

Format : MKV

X.Plus.Y.2014.TRUEFRENCH.720p.BluRay.x264.AC3-ShowFr

(3624 Mo)

[Liens Interchangeables entre hébergeurs: 3x 1000 Mo + 1x 624 Mo]

Uptobox
Télécharger

Uplea
Télécharger

1fichier
Télécharger

Uploaded
Télécharger

Rapidgator
Télécharger

TurboBit
Télécharger

1 Lien Premium – 3.5 Go

Uptobox Premium
Télécharger

Uplea Premium
Télécharger

1fichier Premium
Télécharger

Uploaded Premium
Télécharger

TurboBit Premium
Télécharger

NFO :

Afficher / Masquer le texte cc3db193007be74d09eeb436d56158dd » class= »text_spoiler » style= »display:none; »>General
Unique ID : 39454579561794495754652222515579069269 (0x1DAEACF5925B5653B311AE2119822355)
Complete name : X.Plus.Y.2014.TRUEFRENCH.720p.BluRay.x264.AC3-ShowFr
Format : Matroska
Format version : Version 4 / Version 2
File size : 3.54 GiB
Duration : 1h 51mn
Overall bit rate : 4 547 Kbps
Encoded date : UTC 2015-10-20 13:25:39
Writing application : mkvmerge v8.3.0 (‘Over the Horizon’) 64bit
Writing library : libebml v1.3.1 + libmatroska v1.4.2
DURATION : 01:51:22.880000000
NUMBER_OF_FRAMES : 208840
NUMBER_OF_BYTES : 374241280
_STATISTICS_WRITING_APP : mkvmerge v8.3.0 (‘Over the Horizon’) 64bit
_STATISTICS_WRITING_DATE_UT : 2015-10-20 13:25:39
_STATISTICS_TAGS : BPS DURATION NUMBER_OF_FRAMES NUMBER_OF_BYTES

Video
ID : 2
Format : AVC
Format/Info : Advanced Video Codec
Format profile : [email protected]
Format settings, CABAC : Yes
Format settings, ReFrames : 5 frames
Codec ID : V_MPEG4/ISO/AVC
Duration : 1h 51mn
Bit rate : 4 100 Kbps
Width : 1 280 pixels
Height : 536 pixels
Display aspect ratio : 2.40:1
Frame rate mode : Constant
Frame rate : 24.000 fps
Color space : YUV
Chroma subsampling : 4:2:0
Bit depth : 8 bits
Scan type : Progressive
Bits/(Pixel*Frame) : 0.249
Stream size : 3.12 GiB (88%)
Writing library : x264 core 148 r2579 73ae2d1
Encoding settings : cabac=1 / ref=5 / deblock=1:-3:-3 / analyse=0x3:0x113 / me=umh / subme=8 / psy=1 / psy_rd=1.00:0.00 / mixed_ref=1 / me_range=16 / chroma_me=1 / trellis=1 / 8x8dct=1 / cqm=0 / deadzone=21,11 / fast_pskip=1 / chroma_qp_offset=-2 / threads=12 / lookahead_threads=2 / sliced_threads=0 / nr=0 / decimate=1 / interlaced=0 / bluray_compat=0 / constrained_intra=0 / bframes=3 / b_pyramid=2 / b_adapt=2 / b_bias=0 / direct=3 / weightb=1 / open_gop=0 / weightp=2 / keyint=240 / keyint_min=24 / scenecut=40 / intra_refresh=0 / rc_lookahead=50 / rc=2pass / mbtree=1 / bitrate=4100 / ratetol=1.0 / qcomp=0.60 / qpmin=0 / qpmax=69 / qpstep=4 / cplxblur=20.0 / qblur=0.5 / ip_ratio=1.40 / aq=1:1.00
Language : English
Default : Yes
Forced : No

Audio
ID : 1
Format : AC-3
Format/Info : Audio Coding 3
Mode extension : CM (complete main)
Format settings, Endianness : Big
Codec ID : A_AC3
Duration : 1h 51mn
Bit rate mode : Constant
Bit rate : 448 Kbps
Channel(s) : 6 channels
Channel positions : Front: L C R, Side: L R, LFE
Sampling rate : 48.0 KHz
Compression mode : Lossy
Delay relative to video : 1s 300ms
Stream size : 357 MiB (10%)
Language : French
Default : Yes
Forced : Yes
DURATION : 01:51:26.000000000
NUMBER_OF_FRAMES : 160464
NUMBER_OF_BYTES : 3424755372
_STATISTICS_WRITING_APP : mkvmerge v8.3.0 (‘Over the Horizon’) 64bit
_STATISTICS_WRITING_DATE_UT : 2015-10-20 13:25:39
_STATISTICS_TAGS : BPS DURATION NUMBER_OF_FRAMES NUMBER_OF_BYTES

Menu
00:00:00.000 : en:00:00:00.000
00:06:45.417 : en:00:06:45.417
00:13:12.833 : en:00:13:12.833
00:20:14.667 : en:00:20:14.667
00:26:06.375 : en:00:26:06.375
00:32:49.042 : en:00:32:49.042
00:39:53.458 : en:00:39:53.458
00:45:43.333 : en:00:45:43.333
00:54:22.042 : en:00:54:22.042
01:02:40.375 : en:01:02:40.375
01:09:58.500 : en:01:09:58.500
01:16:46.958 : en:01:16:46.958
01:25:48.500 : en:01:25:48.500
01:31:19.792 : en:01:31:19.792
01:39:53.542 : en:01:39:53.542
01:46:06.125 : en:01:46:06.125

Jeux Gratuit
15354131_1854970838071206_1069261547_o.png