Telecharger Le Monde fantastique d'Oz [BLURAY 720p] French

(TRUEFRENCH = Vraie voix française)

BLURAY 720p | MULTiLANGUES (Avec TRUEFRENCH) | DTS

Le Monde fantastique d'Oz

Le Monde fantastique d'Oz

Le Monde fantastique d'Oz

Origine du film : Américain
Réalisateur : Sam Raimi
Acteurs : James Franco, Mila Kunis, Rachel Weisz
Genre : Aventure, Fantastique, Action
Durée : 2h 7min
Date de sortie : 13 mars 2013
Année de production : 2013
Titre Original : Oz: The Great and Powerful
Distribué par : The Walt Disney Company France
Note presse : Le Monde fantastique d'Oz 3,5/5
Note spectateurs : Le Monde fantastique d'Oz

; »>3,3/5 (4 774)
Bande annonce :

50491e4091c4571ec7efd7ba16ff1fb5

19472823″>Cliquez-ici pour voir la bande annonce 50491e4091c4571ec7efd7ba16ff1fb5″> 19472823

50491e4091c4571ec7efd7ba16ff1fb5

Le Monde fantastique d'Oz

Lorsque Oscar Diggs, un petit magicien de cirque sans envergure à la moralité douteuse, est emporté à bord de sa montgolfière depuis le Kansas poussiéreux jusqu’à l’extravagant Pays d’Oz, il y voit la chance de sa vie. Tout semble tellement possible dans cet endroit stupéfiant composé de paysages luxuriants, de peuples étonnants et de créatures singulières ! Même la fortune et la gloire ! Celles-ci semblent d’autant plus simples à acquérir qu’il peut facilement se faire passer pour le grand magicien dont tout le monde espère la venue. Seules trois sorcières, Théodora, Evanora et Glinda semblent réellement douter de ses compétences…Grâce à ses talents d’illusionniste, à son ingéniosité et à une touche de sorcellerie, Oscar va très vite se retrouver impliqué malgré lui dans les problèmes qu’affrontent Oz et ses habitants. Qui sait désormais si un destin hors du commun ne l’attend pas au bout de la route ?

Nom de la release : Le.Monde.fantastique.d'Oz.2013.MULTi.TRUEFRENCH.720p.BluRay.DTS.x264-STEAL 28558″ style= »display:inline; »>

Qualité : BLURAY 720p
Format : MKV
Sous-titre : Multi
Nombre de fichiers : 8 Fichiers
Taille des fichiers : 1000 Mo 390 Mo
Taille totale : 7390 Mo

Ps: Les liens sont interchangeables, prenez une partie de chaque hébergeur pour télécharger plusieurs fichiers en même temps. smile

1fichier
Télécharger

Uptobox
Télécharger

Free
Télécharger

Uploaded
Télécharger

Rapidgator
Télécharger

TurboBit
Télécharger

NFO :

Afficher / Masquer le texte 3c1fd8cb41fd5c724f857089909bbfef » class= »text_spoiler » style= »display:none; »>General
Unique ID : 173748616504592560101560643741279065213 (0x82B6C42E58EDF7D3A3BF5C5A3CF0147D)
Complete name : E:TelechargementsUploadsLe Monde fantastique d'Oz 2013 720p DTS Bluray x264-STEAL.mkv
Format : Matroska
File size : 7.22 GiB
Duration : 2h 10mn
Overall bit rate : 7 918 Kbps
Movie name : Le Monde fantastique d'Oz 2013 High [email protected] Resolution 1280p/ 720p Frame rate 23.976 fps Release Blondin000
Encoded date : UTC 2013-06-24 14:51:49
Writing application : mkvmerge v6.0.0 ('Coming Up For Air') built on Jan 20 2013 09:52:00
Writing library : libebml v1.3.0 libmatroska v1.4.0

Video
ID : 1
Format : AVC
Format/Info : Advanced Video Codec
Format profile : [email protected]
Format settings, CABAC : Yes
Format settings, ReFrames : 9 frames
Codec ID : V_MPEG4/ISO/AVC
Duration : 2h 10mn
Bit rate : 4 889 Kbps
Width : 1 280 pixels
Height : 720 pixels
Display aspect ratio : 16:9
Frame rate : 23.976 fps
Color space : YUV
Chroma subsampling : 4:2:0
Bit depth : 8 bits
Scan type : Progressive
Bits/(Pixel*Frame) : 0.221
Stream size : 4.32 GiB (60%)
Title : Le Monde fantastique d'Oz 2013 High [email protected] Resolution 1280p/ 720p Frame rate 23.976 fps Release Blondin000
Writing library : x264 core 133 r2334 a3ac64b
Encoding settings : cabac=1 / ref=9 / deblock=1:-3:-3 / analyse=0x3:0x113 / me=umh / subme=11 / psy=1 / psy_rd=0.94:0.24 / mixed_ref=1 / me_range=128 / chroma_me=1 / trellis=2 / 8x8dct=1 / cqm=0 / deadzone=21,11 / fast_pskip=0 / chroma_qp_offset=-2 / threads=18 / lookahead_threads=3 / sliced_threads=0 / nr=0 / decimate=1 / interlaced=0 / bluray_compat=0 / constrained_intra=0 / bframes=8 / b_pyramid=2 / b_adapt=2 / b_bias=0 / direct=1 / weightb=0 / open_gop=1 / weightp=2 / keyint=240 / keyint_min=23 / scenecut=40 / intra_refresh=0 / rc_lookahead=240 / rc=2pass / mbtree=1 / bitrate=4889 / ratetol=1.0 / qcomp=0.60 / qpmin=0 / qpmax=69 / qpstep=4 / cplxblur=20.0 / qblur=0.5 / vbv_maxrate=50000 / vbv_bufsize=50000 / nal_hrd=none / ip_ratio=1.40 / aq=2:1.00
Language : English
Color primaries : BT.709-5, BT.1361, IEC 61966-2-4, SMPTE RP177
Transfer characteristics : BT.709-5, BT.1361
Matrix coefficients : BT.709-5, BT.1361, IEC 61966-2-4 709, SMPTE RP177

Audio #1
ID : 2
Format : DTS
Format/Info : Digital Theater Systems
Codec ID : A_DTS
Duration : 2h 10mn
Bit rate mode : Constant
Bit rate : 1 510 Kbps
Channel(s) : 6 channels
Channel positions : Front: L C R, Side: L R, LFE
Sampling rate : 48.0 KHz
Bit depth : 24 bits
Compression mode : Lossy
Stream size : 1.38 GiB (19%)
Title : VFF DTS 5.1_1510 kbps/ 24-bits 48khz
Language : French

Audio #2
ID : 3
Format : DTS
Format/Info : Digital Theater Systems
Codec ID : A_DTS
Duration : 2h 10mn
Bit rate mode : Constant
Bit rate : 1 510 Kbps
Channel(s) : 6 channels
Channel positions : Front: L C R, Side: L R, LFE
Sampling rate : 48.0 KHz
Bit depth : 24 bits
Compression mode : Lossy
Stream size : 1.38 GiB (19%)
Title : VO DTS 5.1_1510 kbps/ 24-bits 48khz
Language : English

Text #1
ID : 4
Format : PGS
Muxing mode : zlib
Codec ID : S_HDMV/PGS
Codec ID/Info : The same subtitle format used on BDs/HD-DVDs
Title : FR Complets Original Bluray
Language : French

Text #2
ID : 5
Format : PGS
Muxing mode : zlib
Codec ID : S_HDMV/PGS
Codec ID/Info : The same subtitle format used on BDs/HD-DVDs
Title : FR ForcΘs Original bluray
Language : French

Text #3
ID : 6
Format : UTF-8
Codec ID : S_TEXT/UTF8
Codec ID/Info : UTF-8 Plain Text
Title : FR Complets srt
Language : French

Text #4
ID : 7
Format : UTF-8
Codec ID : S_TEXT/UTF8
Codec ID/Info : UTF-8 Plain Text
Title : FR ForcΘs srt
Language : French

Jeux Gratuit
15354131_1854970838071206_1069261547_o.png