Telecharger Le Monde selon Garp [DVDRiP] French

Qualité WEB-DL 720p | MULTiLANGUES (VFi + VOA)

Le Monde selon Garp

Le Monde selon Garp

Origine du film : Américain
Réalisateur : George Roy Hill
Acteurs : Robin Williams, Mary Beth Hurt, Glenn Close
Genre : Comédie, Drame, Romance
Durée : 2h16min
Date de sortie : 13 avril 1983
Année de production : 1982
Titre Original : The World According to Garp
Note spectateurs : Le Monde selon Garp

; »>3,6/5 (241)
Bande annonce :

b9f376233db7815582fa66f7090a3fe2

19463041″>Cliquez-ici pour voir la bande annonce b9f376233db7815582fa66f7090a3fe2″> 19463041

b9f376233db7815582fa66f7090a3fe2

Le Monde selon Garp

C’est par amour que Garp entre en littérature à l’âge de 18 ans, en 1962. Ce jeune garçon, que sa mère féministe a volontairement élevé seule, vient de tomber amoureux d’une fille de son lycée. Le seul moyen de la séduire est de manier la plume, plus que l’épée. Bientôt Garp se retrouve père de famille à New York, toujours accompagné par sa mère. Chacun des deux souhaite faire publier ses écrits.
94319″ style= »display:inline; »>

Le Monde selon Garp

Format : MKV
Découpé avec : Winrar

Le Monde selon Garp

The.World.According.To.Garp.1982.MULTI.720p.WEB-DL.x264.AC3-LCDS

(4153 Mo)

[Liens Interchangeables entre hébergeurs: 4x 998 Mo + 1x 161 Mo]

Uptobox
Télécharger

Uplea
Télécharger

1fichier
Télécharger

Uploaded
Télécharger

Rapidgator
Télécharger

TurboBit
Télécharger

[ Télécharger le film en 1 lien Premium – 4 Go]

Uptobox.com Premium
Télécharger

Uplea Premium
Télécharger

1fichier.com
Télécharger

Uploaded Premium
Télécharger

TurboBit.net Premium
Télécharger

NFO :

Afficher / Masquer le texte a98ed025c94d1b903b46c5b3b725c692″ class= »text_spoiler » style= »display:none; »>Format : Matroska
Format version : Version 4 / Version 2
File size : 4.06 GiB
Duration : 2h 16mn
Overall bit rate : 4 258 Kbps
Encoded date : UTC 2014-08-14 18:32:25
Writing application : mkvmerge v6.9.1 (‘Blue Panther’) 64bit built on Apr 18 2014 18:23:38
Writing library : libebml v1.3.0 + libmatroska v1.4.1

Video
ID : 1
Format : AVC
Format/Info : Advanced Video Codec
Format profile : [email protected]
Format settings, CABAC : No
Format settings, ReFrames : 2 frames
Format settings, GOP : N=1
Codec ID : V_MPEG4/ISO/AVC
Duration : 2h 16mn
Bit rate : 3 853 Kbps
Width : 1 272 pixels
Height : 720 pixels
Display aspect ratio : 16:9
Frame rate mode : Constant
Frame rate : 23.976 fps
Color space : YUV
Chroma subsampling : 4:2:0
Bit depth : 8 bits
Scan type : Progressive
Bits/(Pixel*Frame) : 0.175
Stream size : 3.67 GiB (90%)
Title : Video
Default : Yes
Forced : No
Color range : Limited
Color primaries : BT.709
Transfer characteristics : BT.709
Matrix coefficients : BT.709

Audio #1
ID : 2
Format : AC-3
Format/Info : Audio Coding 3
Mode extension : CM (complete main)
Format settings, Endianness : Big
Codec ID : A_AC3
Duration : 2h 16mn
Bit rate mode : Constant
Bit rate : 192 Kbps
Channel(s) : 2 channels
Channel positions : Front: L R
Sampling rate : 48.0 KHz
Compression mode : Lossy
Stream size : 187 MiB (5%)
Title : Anglais 2.0
Language : English
Default : No
Forced : No

Audio #2
ID : 3
Format : AC-3
Format/Info : Audio Coding 3
Mode extension : CM (complete main)
Format settings, Endianness : Big
Codec ID : A_AC3
Duration : 2h 16mn
Bit rate mode : Constant
Bit rate : 128 Kbps
Channel(s) : 2 channels
Channel positions : Front: L R
Sampling rate : 48.0 KHz
Compression mode : Lossy
Stream size : 125 MiB (3%)
Title : Francais 2.0
Language : French
Default : Yes
Forced : No

Text #1
ID : 4
Format : UTF-8
Codec ID : S_TEXT/UTF8
Codec ID/Info : UTF-8 Plain Text
Title : Anglais
Language : English
Default : No
Forced : No

Text #2
ID : 5
Format : UTF-8
Codec ID : S_TEXT/UTF8
Codec ID/Info : UTF-8 Plain Text
Title : Francais
Language : French
Default : No
Forced : No

Menu
00:00:00.000 : en:Bouncing Credits.
00:02:37.000 : en:T.S. Garp.
00:04:39.000 : en:Preteen lust.
00:07:46.000 : en:Flying with dad.
00:11:00.000 : en:Bitten by Bonkers.
00:14:03.000 : en:Bitten by the wrestling…
00:17:06.000 : en:Trouble on the roof.
00:19:46.000 : en:Dead fathers.
00:24:23.000 : en:Helen Holm.
00:25:55.000 : en:Wrestling with lust.
00:29:25.000 : en:Plans to write.
00:33:40.000 : en:Gaining experience.
00:35:23.000 : en:Scattered pages.
00:37:55.000 : en:Bitten by Garp.
00:39:52.000 : en:Hooker research.
00:45:53.000 : en:Magic Gloves.
00:48:39.000 : en:Time to publish.
00:51:41.000 : en:They do.
00:54:00.000 : en:A force to deal with.
00:56:54.000 : en:A predisastered house.
00:59:20.000 : en:Magic-marker baby.
01:02:19.000 : en:Reckless driving.
01:03:24.000 : en:Ellen Jamesians…
01:10:12.000 : en:Halloween; a lover’s…
01:12:45.000 : en:More reckless driving.
01:15:27.000 : en:Movie night.
01:18:06.000 : en:The sexy age.
01:20:05.000 : en:Youthful longings.
01:25:08.000 : en:Lawn carnage.
01:27:44.000 : en:Only if it’s clean.
01:30:17.000 : en:As beautiful as life gets.
01:33:27.000 : en:Undertow.
01:37:42.000 : en:Out in the open.
01:42:15.000 : en:Driveway crash-landing.
01:46:17.000 : en:House of broken hearts.
01:50:13.000 : en:Missing each other.
01:53:02.000 : en:Newborns.
01:57:25.000 : en:Jenny’s last stand.
02:01:59.000 : en:Mourning.
02:04:52.000 : en:To his rescue.
02:07:19.000 : en:Some date.
02:10:37.000 : en:Like mother, like son.
02:12:15.000 : en:I’m flying
02:14:10.000 : en:End Credits

Jeux Gratuit
15354131_1854970838071206_1069261547_o.png