Télécharger Le Petit criminel French

(TRUEFRENCH = Vraie voix française)

Qualité DVDRiP | TRUEFRENCH

Le Petit criminel

Le Petit criminel

Origine du film : Français
Réalisateur : Jacques Doillon
Acteurs : Richard Anconina, Gérald Thomassin, Clotilde Courau
Genre : Comédie dramatique
Durée : 1h40min
Date de sortie : 19 décembre 1990
Année de production : 1990
Distribué par : Agence Méditerranéenne de Location de Films (A.M.L.F.)
Note spectateurs : Le Petit criminel 3,5/5 (66)

Le Petit criminel

L’histoire simple d’un garçon à l’abandon qui découvre qu’il a une soeur, commet un vol, braque un policier et cherche à se faire aimer.
104612″ style= »display:inline; »>

Le Petit criminel

Format : XviD

Le Petit criminel

Le Petit Criminel – 1990 – VFF [Doillon/Anconina]

(1480 Mo)

Uptobox
Télécharger

Uploaded
Télécharger

TurboBit
Télécharger

Rapidgator
Télécharger

Uplea
Télécharger

1fichier
Télécharger

NFO :

Afficher / Masquer le texte 090b83ab760ae591b3eefeebdceea5f6″ class= »text_spoiler » style= »display:none; »>General
Complete name : K:Le petit criminel – 1990Le petit criminel (1990).DVDRip.XviD.AC3.avi
Format : AVI
Format/Info : Audio Video Interleave
File size : 1.48 GiB
Duration : 1h 36mn
Overall bit rate : 2 197 Kbps
Writing application : VirtualDubMod 1.5.10.2 (build 2540/release)
Writing library : VirtualDubMod build 2540/release

Video
ID : 0
Format : MPEG-4 Visual
Format profile : Advanced [email protected]
Format settings, BVOP : 2
Format settings, QPel : No
Format settings, GMC : No warppoints
Format settings, Matrix : Default (H.263)
Codec ID : XVID
Codec ID/Hint : XviD
Duration : 1h 36mn
Bit rate : 1 995 Kbps
Width : 720 pixels
Height : 304 pixels
Display aspect ratio : 2.35:1
Frame rate : 25.000 fps
Color space : YUV
Chroma subsampling : 4:2:0
Bit depth : 8 bits
Scan type : Progressive
Compression mode : Lossy
Bits/(Pixel*Frame) : 0.365
Stream size : 1.34 GiB (91%)
Writing library : XviD 65

Audio
ID : 1
Format : AC-3
Format/Info : Audio Coding 3
Mode extension : CM (complete main)
Format settings, Endianness : Big
Codec ID : 2000
Duration : 1h 36mn
Bit rate mode : Constant
Bit rate : 192 Kbps
Channel(s) : 2 channels
Channel positions : Front: L R
Sampling rate : 48.0 KHz
Bit depth : 16 bits
Compression mode : Lossy
Delay relative to video : 24ms
Stream size : 132 MiB (9%)
Alignment : Split accross interleaves
Interleave, duration : 40 ms (1.00 video frame)
Interleave, preload duration : 100 ms