Telecharger Le Petit Prince [BLURAY 720p] French

Qualité BLURAY 720p | FRENCH | son DTS

Le Petit Prince

Le Petit Prince

Origine du film : Français
Réalisateur : Mark Osborne
Acteurs : Clara Poincaré, André Dussollier, Florence Foresti
Genre : Animation, Famille
Durée : 1h47min
Date de sortie : 29 juillet 2015
Année de production : 2015
Titre Original : The Little Prince
Distribué par : Paramount Pictures France
Note presse : Le Petit Prince 3,4/5
Note spectateurs : Le Petit Prince 4,2/5 (2 004)
Bande annonce :

077562299ed621d19a6d0f3c956124b4

19552871″>Cliquez-ici pour voir la bande annonce 077562299ed621d19a6d0f3c956124b4″> 19552871

077562299ed621d19a6d0f3c956124b4

Le Petit Prince

C’est l’histoire d’une histoire.C’est l’histoire d’une petite fille, intrépide et curieuse, qui vit dans un monde d’adultes.C’est l’histoire d’un aviateur, excentrique et facétieux, qui n’a jamais vraiment grandi.C’est l’histoire du Petit Prince qui va les réunir dans une aventure extraordinaire.
106072″ style= »display:inline; »>

Le Petit Prince

Format : x264
Découpé avec : Winrar

Le Petit Prince

The.Little.Prince.2015.BluRay.720p.DTS.x264-MTeam

(3056 Mo)

[Liens Interchangeables entre hébergeurs: 3x 1000 Mo + 1x 56 Mo]

Uptobox
Télécharger

Uplea
Télécharger

1fichier
Télécharger

Uploaded
Télécharger

Rapidgator
Télécharger

TurboBit
Télécharger

[Liens PREMIUM]

Uptobox
Télécharger

Uplea
Télécharger

1fichier
Télécharger

Uploaded
Télécharger

Rapidgator
Télécharger

TurboBit
Télécharger

NFO :

Afficher / Masquer le texte a628245b60abf02abcfe61d360a460d0″ class= »text_spoiler » style= »display:none; »>Complete name : The.Little.Prince.2015.BluRay.720p.DTS.x264-MTeam.mkv
Format : Matroska
Format version : Version 4 / Version 2
File size : 2.98 GiB
Duration : 1h 46mn
Overall bit rate : 4 027 Kbps
Encoded date : UTC 2015-11-19 18:34:02
Writing application : mkvmerge v8.5.2 (‘Crosses’) 64bit
Writing library : libebml v1.3.3 + libmatroska v1.4.4
DURATION : 01:46:07.361000000
NUMBER_OF_FRAMES : 152664
NUMBER_OF_BYTES : 2579882333
_STATISTICS_WRITING_APP : mkvmerge v8.5.2 (‘Crosses’) 64bit
_STATISTICS_WRITING_DATE_UTC : 2015-11-19 18:34:02
_STATISTICS_TAGS : BPS DURATION NUMBER_OF_FRAMES NUMBER_OF_BYTES

Video
ID : 1
Format : AVC
Format/Info : Advanced Video Codec
Format profile : [email protected]
Format settings, CABAC : Yes
Format settings, ReFrames : 12 frames
Codec ID : V_MPEG4/ISO/AVC
Duration : 1h 46mn
Bit rate : 3 179 Kbps
Width : 1 280 pixels
Height : 536 pixels
Display aspect ratio : 2.40:1
Frame rate mode : Constant
Frame rate : 23.976 fps
Color space : YUV
Chroma subsampling : 4:2:0
Bit depth : 8 bits
Scan type : Progressive
Bits/(Pixel*Frame) : 0.193
Stream size : 2.36 GiB (79%)
Writing library : x264 core 148 r2597 e86f3a1
Encoding settings : cabac=1 / ref=12 / deblock=1:-3:-3 / analyse=0x3:0x113 / me=umh / subme=10 / psy=1 / psy_rd=1.00:0.05 / mixed_ref=1 / me_range=32 / chroma_me=1 / trellis=2 / 8x8dct=1 / cqm=0 / deadzone=21,11 / fast_pskip=0 / chroma_qp_offset=-2 / threads=12 / lookahead_threads=2 / sliced_threads=0 / nr=0 / decimate=1 / interlaced=0 / bluray_compat=0 / constrained_intra=0 / bframes=8 / b_pyramid=2 / b_adapt=2 / b_bias=0 / direct=3 / weightb=1 / open_gop=0 / weightp=2 / keyint=250 / keyint_min=23 / scenecut=40 / intra_refresh=0 / rc_lookahead=40 / rc=crf / mbtree=0 / crf=17.0 / qcomp=0.60 / qpmin=0 / qpmax=69 / qpstep=4 / vbv_maxrate=30000 / vbv_bufsize=30000 / crf_max=0.0 / nal_hrd=none / filler=0 / ip_ratio=1.40 / pb_ratio=1.30 / aq=3:1.00
Default : Yes
Forced : No
Matrix coefficients : BT.709

Audio
ID : 2
Format : DTS
Format/Info : Digital Theater Systems
Mode : 16
Format settings, Endianness : Big
Codec ID : A_DTS
Duration : 1h 46mn
Bit rate mode : Constant
Bit rate : 768 Kbps
Channel(s) : 6 channels
Channel positions : Front: L C R, Side: L R, LFE
Sampling rate : 48.0 KHz
Bit depth : 16 bits
Compression mode : Lossy
Stream size : 583 MiB (19%)
Language : French
Default : Yes
Forced : No

Text
ID : 3
Format : PGS
Muxing mode : zlib
Codec ID : S_HDMV/PGS
Codec ID/Info : The same subtitle format used on BDs/HD-DVDs
Language : French
Default : Yes
Forced : No

Jeux Gratuit
15354131_1854970838071206_1069261547_o.png