Telecharger Le Pianiste [BLURAY 720p] French

(TRUEFRENCH = Vraie voix française)

Qualité BLURAY 720p | MULTiLANGUES (Avec TRUEFRENCH) | son DTS

Le Pianiste

Le Pianiste

Origine du film : Français, Britannique, Allemand, Polonais
Réalisateur : Roman Polanski
Acteurs : Adrien Brody, Thomas Kretschmann, Emilia Fox
Genre : Drame, Historique
Durée : 2h28min
Date de sortie : 25 septembre 2002
Année de production : 2002
Titre Original : The Pianist
Distribué par : Bac Films
Note presse : Le Pianiste 4,1/5
Note spectateurs : Le Pianiste

; »>4,3/5 (29 122)
Bande annonce :

66e1b5e4c52fd2e0273afdb95870e260

18672668″>Cliquez-ici pour voir la bande annonce 66e1b5e4c52fd2e0273afdb95870e260″> 18672668

66e1b5e4c52fd2e0273afdb95870e260

Le Pianiste

Durant la Seconde Guerre mondiale, Wladyslaw Szpilman, un célèbre pianiste juif polonais, échappe à la déportation mais se retrouve parqué dans le ghetto de Varsovie dont il partage les souffrances, les humiliations et les luttes héroïques. Il parvient à s’en échapper et se réfugie dans les ruines de la capitale. Un officier allemand, qui apprécie sa musique, l’aide et lui permet de survivre.
102110″ style= »display:inline; »>

Le Pianiste

Format : MKV
Découpé avec : Winrar

Le Pianiste

Le.Pianiste.2002.MULTi.WiTH.TRUEFRENCH.720p.BluRay.DTS.x264-Ganesh

(9683 Mo)

[Liens Interchangeables entre hébergeurs: 9x 1000 Mo + 1x 683 Mo]

Uptobox
Télécharger

Uplea
Télécharger

1fichier
Télécharger

Uploaded
Télécharger

Rapidgator
Télécharger

TurboBit
Télécharger

[ Liens Premium ]

Uptobox
Télécharger

Uplea
Télécharger

1fichier
Télécharger

Uploaded
Télécharger

TurboBit
Télécharger

NFO :

Afficher / Masquer le texte 1073ab7c52bc85dc5872ed200b9613fe » class= »text_spoiler » style= »display:none; »>Le Pianiste 2002 MULTI 720p BluRay DTS x264-Ganesh.zone-telechargement.com.mkv
Format : Matroska
Format version : Version 4 / Version 2
File size : 9.46 GiB
Duration : 2h 28mn
Overall bit rate : 9 103 Kbps
Encoded date : UTC 2013-05-17 14:31:23
Writing application : mkvmerge v6.2.0 (‘Promised Land’) built on Apr 28 2013 09:19:26
Writing library : libebml v1.3.0 + libmatroska v1.4.0

Video
ID : 1
Format : AVC
Format/Info : Advanced Video Codec
Format profile : [email protected]
Format settings, CABAC : Yes
Format settings, ReFrames : 7 frames
Codec ID : V_MPEG4/ISO/AVC
Duration : 2h 28mn
Bit rate : 5 903 Kbps
Width : 1 280 pixels
Height : 690 pixels
Display aspect ratio : 1.85:1
Original display aspect rat : 1.85:1
Frame rate mode : Constant
Frame rate : 24.000 fps
Original frame rate : 23.976 fps
Color space : YUV
Chroma subsampling : 4:2:0
Bit depth : 8 bits
Scan type : Progressive
Bits/(Pixel*Frame) : 0.279
Stream size : 6.13 GiB (65%)
Writing library : x264 core 128 r2M 198a7ea
Encoding settings : cabac=1 / ref=7 / deblock=1:-3:-3 / analyse=0x3:0x113 / me=umh / subme=10 / psy=1 / fade_compensate=0.00 / psy_rd=1.00:0.20 / mixed_ref=1 / me_range=64 / chroma_me=1 / trellis=2 / 8x8dct=1 / cqm=0 / deadzone=6,6 / fast_pskip=0 / chroma_qp_offset=-3 / threads=12 / lookahead_threads=2 / sliced_threads=0 / nr=0 / decimate=0 / interlaced=0 / bluray_compat=0 / constrained_intra=0 / bframes=6 / b_pyramid=2 / b_adapt=2 / b_bias=0 / direct=1 / weightb=1 / open_gop=1 / weightp=2 / keyint=250 / keyint_min=23 / scenecut=40 / intra_refresh=0 / rc_lookahead=220 / rc=crf / mbtree=1 / crf=18.5 / qcomp=0.75 / qpmin=0 / qpmax=69 / qpstep=4 / vbv_maxrate=50000 / vbv_bufsize=50000 / crf_max=0.0 / nal_hrd=none / ip_ratio=1.40 / aq=2:0.75
Language : English
Default : Yes
Forced : No

Audio #1
ID : 2
Format : DTS
Format/Info : Digital Theater Systems
Mode : 16
Format settings, Endianness : Big
Codec ID : A_DTS
Duration : 2h 28mn
Bit rate mode : Constant
Bit rate : 1 509 Kbps
Channel(s) : 6 channels
Channel positions : Front: L C R, Side: L R, LFE
Sampling rate : 48.0 KHz
Bit depth : 24 bits
Compression mode : Lossy
Stream size : 1.57 GiB (17%)
Language : French
Default : Yes
Forced : No

Audio #2
ID : 3
Format : DTS
Format/Info : Digital Theater Systems
Mode : 16
Format settings, Endianness : Big
Codec ID : A_DTS
Duration : 2h 28mn
Bit rate mode : Constant
Bit rate : 1 509 Kbps
Channel(s) : 6 channels
Channel positions : Front: L C R, Side: L R, LFE
Sampling rate : 48.0 KHz
Bit depth : 24 bits
Compression mode : Lossy
Stream size : 1.57 GiB (17%)
Language : English
Default : No
Forced : No

Text #1
ID : 4
Format : UTF-8
Codec ID : S_TEXT/UTF8
Codec ID/Info : UTF-8 Plain Text
Language : French
Default : Yes
Forced : Yes

Text #2
ID : 5
Format : UTF-8
Codec ID : S_TEXT/UTF8
Codec ID/Info : UTF-8 Plain Text
Language : French
Default : No
Forced : No

Jeux Gratuit
15354131_1854970838071206_1069261547_o.png