Telecharger Le Prestige [BLURAY 720p] French

BLURAY 720p | FRENCH

Le Prestige

Le Prestige

Le Prestige

Origine du film : Américain, britannique
Réalisateur : Christopher Nolan
Acteurs : Hugh Jackman, Christian Bale, Michael Caine
Genre : Thriller, Drame, Fantastique
Durée : 2h 8min
Date de sortie : 15 novembre 2006
Année de production : 2006
Titre Original : The Prestige
Distribué par : Warner Bros. France
Note presse : Le Prestige 3,2/5
Note spectateurs : Le Prestige 4,2/5 (16 292)
Bande annonce :

015999f5f039fed99c5b4c51d73ad7b9

18701619″>Cliquez-ici pour voir la bande annonce 015999f5f039fed99c5b4c51d73ad7b9″> 18701619

015999f5f039fed99c5b4c51d73ad7b9

Le Prestige

Londres, au début du siècle dernier…Robert Angier et Alfred Borden sont deux magiciens surdoués, promis dès leur plus jeune âge à un glorieux avenir. Une compétition amicale les oppose d'abord l'un à l'autre, mais l'émulation tourne vite à la jalousie, puis à la haine. Devenus de farouches ennemis, les deux rivaux vont s'efforcer de se détruire l'un l'autre en usant des plus noirs secrets de leur art. Cette obsession aura pour leur entourage des conséquences dramatiques…

Nom de la release : The.Prestige.2006.FRENCH.720p.BluRay.x264-BIX 28861″ style= »display:inline; »>

Qualité : BLURAY 720p
Format : MKV
Langue : Français
Découpé avec : Winrar
Nombre de fichiers : 5 Fichiers
Taille des fichiers : 998 Mo 488 Mo
Taille totale : 4480 Mo

[Liens Interchangeables – 4 liens de 1Go 1 lien de 488 Mo]

Ps: Vous pouvez prendre une partie sur chaque hébergeur, pour télécharger plusieurs fichiers en même temps. smile

1fichier
Télécharger

Uptobox
Télécharger

Free
Télécharger

Uploaded
Télécharger

Rapidgator
Télécharger

TurboBit
Télécharger

[ 1 lien Premium – 4,4 Go]

1fichier
Télécharger

Uptobox
Télécharger

Free
Télécharger

Uploaded
Télécharger

Rapidgator
Télécharger

TurboBit
Télécharger

Mega
Télécharger

NFO :

Afficher / Masquer le texte b5aee1a09851ea4d4ca322ccbd85091f » class= »text_spoiler » style= »display:none; »>Format : Matroska
Format version : Version 1
File size : 4.38 GiB
Duration : 2h 10mn
Overall bit rate mode : Variable
Overall bit rate : 4 803 Kbps
Encoded date : UTC 2009-07-31 18:35:08
Writing application : mkvmerge v2.3.0 ('Freak U') built on Sep 8 2008 18:32:16
Writing library : libebml v0.7.7 libmatroska v0.8.1

Video
ID : 1
Format : AVC
Format/Info : Advanced Video Codec
Format profile : [email protected]
Format settings, CABAC : Yes
Format settings, ReFrames : 3 frames
Codec ID : V_MPEG4/ISO/AVC
Duration : 2h 10mn
Bit rate mode : Variable
Bit rate : 4 160 Kbps
Maximum bit rate : 40.0 Mbps
Width : 1 280 pixels
Height : 544 pixels
Display aspect ratio : 2.35:1
Frame rate mode : Constant
Frame rate : 23.976 fps
Color space : YUV
Chroma subsampling : 4:2:0
Bit depth : 8 bits
Scan type : Progressive
Bits/(Pixel*Frame) : 0.249
Stream size : 3.71 GiB (85%)
Writing library : x264 core 68 r1183M f21daff
Encoding settings : cabac=1 / ref=3 / deblock=1:-1:-1 / analyse=0x3:0x113 / me=umh / subme=7 / psy_rd=1.0:0.0 / mixed_ref=1 / me_range=16 / chroma_me=1 / trellis=2 / 8x8dct=1 / cqm=0 / deadzone=21,11 / chroma_qp_offset=-2 / threads=3 / nr=0 / decimate=1 / mbaff=0 / bframes=3 / b_pyramid=0 / b_adapt=1 / b_bias=0 / direct=3 / wpredb=1 / keyint=24 / keyint_min=2 / scenecut=40 / rc=2pass / bitrate=4160 / ratetol=1.0 / qcomp=0.50 / qpmin=10 / qpmax=51 / qpstep=4 / cplxblur=20.0 / qblur=0.5 / vbv_maxrate=40000 / vbv_bufsize=30000 / ip_ratio=1.10 / pb_ratio=1.10 / aq=1:1.00
Language : French
Default : Yes
Forced : No

Audio
ID : 2
Format : AC-3
Format/Info : Audio Coding 3
Mode extension : CM (complete main)
Format settings, Endianness : Big
Codec ID : A_AC3
Duration : 2h 10mn
Bit rate mode : Constant
Bit rate : 640 Kbps
Channel(s) : 6 channels
Channel positions : Front: L C R, Side: L R, LFE
Sampling rate : 48.0 KHz
Bit depth : 16 bits
Compression mode : Lossy
Stream size : 597 MiB (13%)
Language : French
Default : Yes
Forced : No

Jeux Gratuit
15354131_1854970838071206_1069261547_o.png