Telecharger Le Privé de ces dames [DVDRiP] French

(TRUEFRENCH = Vraie voix française)

Qualité DVDRiP | TRUEFRENCH

Le Privé de ces dames

Le Privé de ces dames

Origine du film : Américain
Réalisateur : Robert Moore
Acteurs : Jonathan Banks, Peter Falk, Ann-Margret
Genre : Comédie, Policier, Thriller, Romance
Durée : 1h32min
Année de production : 1978
Titre Original : The Cheap Detective
Note spectateurs : Le Privé de ces dames

; »>3,2/5 (4)
Bande annonce :

4a251e98c66442ed9d6b6555f241a7e7

19499259″>Cliquez-ici pour voir la bande annonce 4a251e98c66442ed9d6b6555f241a7e7″> 19499259

4a251e98c66442ed9d6b6555f241a7e7

Le Privé de ces dames

Le détective privé Peckinpau est soupçonné du meutre du mari de la femme qu’il fréquente en secret. L’enquêteur va tout faire pour prouver son innocence mais aussi continuer ses recherches sur d’autres affaires qu’il était en train de traiter. En effet, il doit retrouver la trace d’une jeune fille disparue et mettre la main sur des papiers confidentiels…
84717″ style= »display:inline; »>

Le Privé de ces dames

Format : XviD

Le Privé de ces dames

(1450 Mo)

Uptobox
Télécharger

Uploaded
Télécharger

TurboBit
Télécharger

Rapidgator
Télécharger

Uplea
Télécharger

1fichier
Télécharger

NFO :

Afficher / Masquer le texte df317cc1bd8355bcffd421ab9142e988″ class= »text_spoiler » style= »display:none; »>General
Complete name : Le privé de ces dames 1978 xvid mp3.avi
Format : AVI
Format/Info : Audio Video Interleave
Format profile : OpenDML
File size : 1.45 GiB
Duration : 1h 35mn
Overall bit rate : 2 191 Kbps
Writing application : MEncoder SVN-r33883(20110719-gcc4.5.2)
Writing library : MPlayer

Video
ID : 0
Format : MPEG-4 Visual
Format profile : Advanced [email protected]
Format settings, BVOP : Yes
Format settings, QPel : No
Format settings, GMC : No warppoints
Format settings, Matrix : Default (H.263)
Codec ID : XVID
Codec ID/Hint : XviD
Duration : 1h 35mn
Bit rate : 2 049 Kbps
Width : 1 280 pixels
Height : 518 pixels
Display aspect ratio : 2.471
Frame rate : 25.000 fps
Color space : YUV
Chroma subsampling : 4:2:0
Bit depth : 8 bits
Scan type : Progressive
Compression mode : Lossy
Bits/(Pixel*Frame) : 0.124
Stream size : 1.36 GiB (94%)
Writing library : XviD 1.2.1 (UTC 2008-12-04)

Audio
ID : 1
Format : MPEG Audio
Format version : Version 1
Format profile : Layer 3
Mode : Joint stereo
Codec ID : 55
Codec ID/Hint : MP3
Duration : 1h 35mn
Bit rate mode : Constant
Bit rate : 128 Kbps
Channel(s) : 2 channels
Sampling rate : 44.1 KHz
Compression mode : Lossy
Delay relative to video : 40ms
Stream size : 87.0 MiB (6%)
Alignment : Aligned on interleaves
Interleave, duration : 26 ms (0.65 video frame)
Interleave, preload duration : 522 ms

Jeux Gratuit
15354131_1854970838071206_1069261547_o.png