Telecharger Le Renard s'évade à trois heures [DVDRiP] French

(TRUEFRENCH = Vraie voix française)

Qualité DVDRiP | TRUEFRENCH

Le Renard s'évade à trois heures

Le Renard s'évade à trois heures

Origine du film : Britannique, Italien
Réalisateur : Vittorio De Sica
Acteurs : Peter Sellers, Victor Mature, Martin Balsam
Genre : Comédie, Policier
Durée : 1h43min
Date de sortie : janvier 1968
Année de production : 1966
Titre Original : Caccia alla volpe
Note spectateurs : Le Renard s'évade à trois heures

; »>3,1/5 (16)

Le Renard s'évade à trois heures

Aldo Vanucci, escroc italien aussi connu sous le nom du « Renard », sort de prison. Les affaires reprennent pour lui. Croyant que sa soeur se prostitue, il se met en tête de la sortir d’un mauvais pas.
92852″ style= »display:inline; »>

Le Renard s'évade à trois heures

Format : XviD

Le Renard s'évade à trois heures

Le Renard s’évade à trois heures 1966 FRENCH.DVDRiP.XViD.AC3-HuSh

(1360 Mo)

Uptobox
Télécharger

Uploaded
Télécharger

TurboBit
Télécharger

Rapidgator
Télécharger

Uplea
Télécharger

1fichier
Télécharger

NFO :

Afficher / Masquer le texte a2fd697d14ff3ce27e54463981a188e3″ class= »text_spoiler » style= »display:none; »>■General

Complete name : G:TorrentLe.Renard.S.Evade.A.Trois.Heures.1966.FRENCH.DVDRiP.XViD.AC3-HuShLe.Renard.S.Evade.A.Trois.Heures.1966.FRENCH.DVDRiP.XViD.AC3-HuSh.avi

Format : AVI

Format/Info : Audio Video Interleave

File size : 1.36 GiB

Duration : 1h 39mn

Overall bit rate : 1 970 Kbps

Movie name : Le.Renard.S.Evade.A.Trois.Heures.1966.FRENCH.DVDRiP.XViD.AC3-HuSh

Video

ID : 0

Format : MPEG-4 Visual

Format profile : Advanced [email protected]

Format settings, BVOP : 1

Format settings, QPel : No

Format settings, GMC : No warppoints

Format settings, Matrix : Default (H.263)

Muxing mode : Packed bitstream

Codec ID : XVID

Codec ID/Hint : XviD

Duration : 1h 39mn

Bit rate : 1 770 Kbps

Width : 640 pixels

Height : 272 pixels

Display aspect ratio : 2.35:1

Frame rate : 25.000 fps

Color space : YUV

Chroma subsampling : 4:2:0

Bit depth : 8 bits

Scan type : Progressive

Compression mode : Lossy

Bits/(Pixel*Frame) : 0.407

Stream size : 1.23 GiB (90%)

Writing library : XviD 1.2.1 (UTC 2008-12-04)

Audio

ID : 1

Format : AC-3

Format/Info : Audio Coding 3

Mode extension : CM (complete main)

Format settings, Endianness : Big

Codec ID : 2000

Duration : 1h 39mn

Bit rate mode : Constant

Bit rate : 192 Kbps

Channel(s) : 2 channels

Channel positions : Front: L R

Sampling rate : 48.0 KHz

Compression mode : Lossy

Stream size : 136 MiB (10%)

Alignment : Split accross interleaves

Interleave, duration : 64 ms (1.60 video frames)

Interleave, preload duratio : 500 ms

Language : Undefined