Telecharger Le Retour de l'abominable Phibes [DVDRiP] French

Qualité DVDRiP mkv | FRENCH

Le Retour de l'abominable Phibes

Le Retour de l'abominable Phibes

Origine du film : Britannique
Réalisateur : Robert Fuest
Acteurs : Vincent Price, Robert Quarry, Valli Kemp
Genre : Epouvante-horreur
Durée : 1h29min
Année de production : 1972
Titre Original : Dr. Phibes Rises Again
Note spectateurs : Le Retour de l'abominable Phibes

; »>2,7/5 (29)

Le Retour de l'abominable Phibes

Le diabolique docteur est de retour et veut tout mettre en oeuvre pour ressusciter sa femme décédée durant une opération chirurgicale.
95359″ style= »display:inline; »>

Le Retour de l'abominable Phibes

Format : MKV

Le Retour de l'abominable Phibes

Le Retour De L’Abominable Docteur Phibes 1972 FRENCH.DVDRiP.XviD.AC3-HuSh

(1370 Mo)

Uptobox
Télécharger

Uploaded
Télécharger

TurboBit
Télécharger

Rapidgator
Télécharger

Uplea
Télécharger

1fichier
Télécharger

NFO :

Afficher / Masquer le texte 836859b91846fc724df8213a941ecf4e » class= »text_spoiler » style= »display:none; »>■General

Complete name : G:TorrentLe.Retour.De.L.Abominable.Docteur.Phibes.1972.FRENCH.DVDRiP.XviD.AC3-HuShLe.Retour.De.L.Abominable.Docteur.Phibes.1972.FRENCH.DVDRiP.XviD.AC3-HuSh.avi

Format : AVI

Format/Info : Audio Video Interleave

File size : 1.37 GiB

Duration : 1h 29mn

Overall bit rate : 2 185 Kbps

Writing application : VirtualDubMod 1.5.10.2 (build 2542/release)

Writing library : VirtualDubMod build 2542/release

Video

ID : 0

Format : MPEG-4 Visual

Format profile : Advanced [email protected]

Format settings, BVOP : 1

Format settings, QPel : No

Format settings, GMC : No warppoints

Format settings, Matrix : Default (H.263)

Muxing mode : Packed bitstream

Codec ID : XVID

Codec ID/Hint : XviD

Duration : 1h 29mn

Bit rate : 1 986 Kbps

Width : 640 pixels

Height : 352 pixels

Display aspect ratio : 16:9

Frame rate : 23.976 fps

Color space : YUV

Chroma subsampling : 4:2:0

Bit depth : 8 bits

Scan type : Progressive

Compression mode : Lossy

Bits/(Pixel*Frame) : 0.368

Stream size : 1.24 GiB (91%)

Writing library : XviD 64

Audio

ID : 1

Format : AC-3

Format/Info : Audio Coding 3

Mode extension : CM (complete main)

Format settings, Endianness : Big

Codec ID : 2000

Duration : 1h 29mn

Bit rate mode : Constant

Bit rate : 192 Kbps

Channel(s) : 2 channels

Channel positions : Front: L R

Sampling rate : 48.0 KHz

Compression mode : Lossy

Stream size : 123 MiB (9%)

Alignment : Split accross interleaves

Interleave, duration : 64 ms (1.53 video frames)

Interleave, preload duratio : 500 ms

Jeux Gratuit
15354131_1854970838071206_1069261547_o.png