Télécharger Le Sauvage

Qualité BLURAY 1080p | FRENCH | son DTS

Le Sauvage

Le Sauvage

Origine du film : Italien, Français
Réalisateur : Jean-Paul Rappeneau
Acteurs : Yves Montand, Catherine Deneuve, Luigi Vannuchi
Genre : Comédie, Aventure, Drame
Durée : 1h43min
Date de sortie : 26 novembre 1975
Année de production : 1975
Distribué par : Carlotta Films
Note presse : Le Sauvage 4,8/5
Note spectateurs : Le Sauvage 3,8/5 (289)
Bande annonce :

85d4e168110bbb2902357fa41b182e00

19436770″>Cliquez-ici pour voir la bande annonce 85d4e168110bbb2902357fa41b182e00″> 19436770

85d4e168110bbb2902357fa41b182e00

Le Sauvage

Las de la vanité parisienne, Martin, créateur de parfums, s’est exilé sur une île d’Amérique latine. Un jour qu’il est de passage à Caracas, sa nuit est troublée par l’irruption de Nelly, volcanique jeune femme fuyant son fiancée. Elle propose à Martin de lui vendre un Toulouse-Lautrec, emprunté à son patron, en guise de salaire s’il l’aide à rentrer en France. Celui-ci accepte. Soulagé, il regagne son île où il a la surprise de retrouver Nelly.
103978″ style= »display:inline; »>

Le Sauvage

Format : MKV
Découpé avec : Winrar

Le Sauvage

Le.Sauvage.1975.FRENCH.1080p.BluRay.x264-CiNEFiLE

(8134 Mo)

[Liens Interchangeables entre hébergeurs: 8x 1000 Mo + 1x 134 Mo]

Uptobox
Télécharger

Uplea
Télécharger

1fichier
Télécharger

Uploaded
Télécharger

Rapidgator
Télécharger

TurboBit
Télécharger

[ Liens Premium ]

Uptobox
Télécharger

Uplea
Télécharger

1fichier
Télécharger

Uploaded
Télécharger

TurboBit
Télécharger

NFO :

Afficher / Masquer le texte ae96cabe1facea88c63580de5a2c91c6″ class= »text_spoiler » style= »display:none; »>Le.Sauvage.1975.FRENCH.1080p.BluRay.x264-CiNEFiLE.mkv
Format : Matroska
Format version : Version 2
File size : 7.94 GiB
Duration : 1h 46mn
Overall bit rate : 10.7 Mbps
Encoded date : UTC 2011-10-24 07:27:56
Writing application : mkvmerge v5.0.1 (‘Es ist Sommer’) built on Oct 9 2011 11:55:43
Writing library : libebml v1.2.2 + libmatroska v1.3.0

Video
ID : 1
Format : AVC
Format/Info : Advanced Video Codec
Format profile : [email protected]
Format settings, CABAC : Yes
Format settings, ReFrames : 4 frames
Codec ID : V_MPEG4/ISO/AVC
Duration : 1h 46mn
Bit rate : 9 182 Kbps
Width : 1 808 pixels
Height : 1 080 pixels
Display aspect ratio : 1.674
Frame rate mode : Constant
Frame rate : 23.976 fps
Color space : YUV
Chroma subsampling : 4:2:0
Bit depth : 8 bits
Scan type : Progressive
Bits/(Pixel*Frame) : 0.196
Stream size : 6.66 GiB (84%)
Writing library : x264 core 118 r2085 8a62835
Encoding settings : cabac=1 / ref=4 / deblock=1:0:0 / analyse=0x3:0x113 / me=umh / subme=7 / psy=1 / psy_rd=1.00:0.00 / mixed_ref=1 / me_range=16 / chroma_me=1 / trellis=1 / 8x8dct=1 / cqm=0 / deadzone=21,11 / fast_pskip=0 / chroma_qp_offset=-2 / threads=12 / sliced_threads=0 / nr=0 / decimate=1 / interlaced=0 / bluray_compat=0 / constrained_intra=0 / bframes=3 / b_pyramid=2 / b_adapt=1 / b_bias=0 / direct=1 / weightb=1 / open_gop=0 / weightp=2 / keyint=250 / keyint_min=23 / scenecut=40 / intra_refresh=0 / rc_lookahead=40 / rc=2pass / mbtree=1 / bitrate=9182 / ratetol=1.0 / qcomp=0.60 / qpmin=0 / qpmax=69 / qpstep=4 / cplxblur=20.0 / qblur=0.5 / ip_ratio=1.40 / aq=1:1.00
Language : English
Default : Yes
Forced : No

Audio
ID : 2
Format : DTS
Format/Info : Digital Theater Systems
Mode : 16
Format settings, Endianness : Big
Codec ID : A_DTS
Duration : 1h 46mn
Bit rate mode : Constant
Bit rate : 1 509 Kbps
Channel count : 3 channels
Channel positions : Front: L C R
Sampling rate : 48.0 KHz
Bit depth : 24 bits
Compression mode : Lossy
Stream size : 1.12 GiB (14%)
Language : French
Default : Yes
Forced : No

Text
ID : 3
Format : UTF-8
Codec ID : S_TEXT/UTF8
Codec ID/Info : UTF-8 Plain Text
Language : English
Default : Yes
Forced : No

Jeux Gratuit
15354131_1854970838071206_1069261547_o.png