Telecharger Le Seigneur des anneaux : la communauté de l'anneau [BLURAY 720p] French

Qualité BLURAY 720p | TRUEFRENCH | son DTS | Version Longue

Le Seigneur des anneaux : la communauté de l'anneau

Le Seigneur des anneaux : la communauté de l'anneau

Origine du film : Américain, Néo-zélandais
Réalisateur : Peter Jackson
Acteurs : Elijah Wood, Sean Astin, Ian McKellen
Genre : Fantastique, Aventure, Action
Durée : 3h 48min
Date de sortie : 19 décembre 2001
Année de production : 2001
Titre Original :
The Lord of the Rings: The Fellowship of the Ring
Distribué par : Metropolitan FilmExport
Note presse : Le Seigneur des anneaux : la communauté de l'anneau 3,7/5
Note spectateurs : Le Seigneur des anneaux : la communauté de l'anneau 4,5/5 (64298)
Bande annonce :

d409fbd898a22bdeb361139ee6b54c0a

19448553″>Cliquez-ici pour voir la bande annonce d409fbd898a22bdeb361139ee6b54c0a »> 19448553

d409fbd898a22bdeb361139ee6b54c0a

Le Seigneur des anneaux : la communauté de l'anneau

Dans ce chapitre de la trilogie, le jeune et timide Hobbit, Frodon Sacquet, hérite d’un anneau. Bien loin d’être une simple babiole, il s’agit de l’Anneau Unique, un instrument de pouvoir absolu qui permettrait à Sauron, le Seigneur des ténèbres, de régner sur la Terre du Milieu et de réduire en esclavage ses peuples. À moins que Frodon, aidé d’une Compagnie constituée de Hobbits, d’Hommes, d’un Magicien, d’un Nain, et d’un Elfe, ne parvienne à emporter l’Anneau à travers la Terre du Milieu jusqu’à la Crevasse du Destin, lieu où il a été forgé, et à le détruire pour toujours. Un tel périple signifie s’aventurer très loin en Mordor, les terres du Seigneur des ténèbres, où est rassemblée son armée d’Orques maléfiques… La Compagnie doit non seulement combattre les forces extérieures du mal mais aussi les dissensions internes et l’influence corruptrice qu’exerce l’Anneau lui-même.L’issue de l’histoire à venir est intimement liée au sort de la Compagnie. 5703″ style= »display:inline; »>

Le Seigneur des anneaux : la communauté de l'anneau

Format : x264
Découpé avec : Winrar

Le Seigneur des anneaux : la communauté de l'anneau

The.Lord.of.the.Rings.The.Fellowship.of.the.Ring.2001.EXTENDED.FRENCH.720p.BluRay.X264-LOST

(10067 Mo)

[Liens Interchangeables entre hébergeurs: 10x 1000 Mo + 1x 67 Mo]

Uptobox
Télécharger

Uplea
Télécharger

1fichier
Télécharger

Uploaded
Télécharger

Rapidgator
Télécharger

TurboBit
Télécharger

[Liens PREMIUM]

Uptobox
Télécharger

Uplea
Télécharger

1fichier
Télécharger

Uploaded
Partie 1
Partie 2

TurboBit
Télécharger

NFO :

Afficher / Masquer le texte ef56179fe8d4ea3857bc4703c5ad1766″ class= »text_spoiler » style= »display:none; »>General
Format : Matroska
Format version : Version 2
File size : 9.83 GiB
Duration : 3h 48mn
Overall bit rate : 6 167 Kbps
Encoded date : UTC 2011-06-23 03:59:05
Writing application : mkvmerge v4.3.0 (‘Escape from the Island’) built on Sep 5 2010 10:30:51
Writing library : libebml v1.0.0 + libmatroska v1.0.0

Video
ID : 1
Format : AVC
Format/Info : Advanced Video Codec
Format profile : [email protected]
Format settings, CABAC : Yes
Format settings, ReFrames : 5 frames
Codec ID : V_MPEG4/ISO/AVC
Duration : 3h 48mn
Bit rate : 4 656 Kbps
Width : 1 280 pixels
Height : 536 pixels
Display aspect ratio : 2.40:1
Frame rate mode : Constant
Frame rate : 23.976 fps
Color space : YUV
Chroma subsampling : 4:2:0
Bit depth : 8 bits
Scan type : Progressive
Bits/(Pixel*Frame) : 0.283
Stream size : 7.23 GiB (74%)
Writing library : x264 core 115 r2008 4c552d8
Encoding settings : cabac=1 / ref=5 / deblock=1:0:0 / analyse=0x3:0x113 / me=umh / subme=7 / psy=1 / psy_rd=1.00:0.15 / mixed_ref=1 / me_range=16 / chroma_me=1 / trellis=1 / 8x8dct=1 / cqm=0 / deadzone=21,11 / fast_pskip=0 / chroma_qp_offset=-3 / threads=12 / sliced_threads=0 / nr=0 / decimate=1 / interlaced=0 / bluray_compat=0 / constrained_intra=0 / bframes=3 / b_pyramid=2 / b_adapt=1 / b_bias=0 / direct=1 / weightb=1 / open_gop=0 / weightp=2 / keyint=250 / keyint_min=23 / scenecut=40 / intra_refresh=0 / rc_lookahead=40 / rc=2pass / mbtree=1 / bitrate=4656 / ratetol=1.0 / qcomp=0.60 / qpmin=0 / qpmax=69 / qpstep=4 / cplxblur=20.0 / qblur=0.5 / ip_ratio=1.40 / aq=1:1.00
Language : English
Default : Yes
Forced : No

Audio
ID : 2
Format : DTS
Format/Info : Digital Theater Systems
Mode : 16
Format settings, Endianness : Big
Codec ID : A_DTS
Duration : 3h 48mn
Bit rate mode : Constant
Bit rate : 1 509 Kbps
Channel(s) : 6 channels
Channel positions : Front: L C R, Side: L R, LFE
Sampling rate : 48.0 KHz
Bit depth : 16 bits
Compression mode : Lossy
Stream size : 2.41 GiB (24%)
Language : French
Default : Yes
Forced : No

Text
ID : 3
Format : UTF-8
Codec ID : S_TEXT/UTF8
Codec ID/Info : UTF-8 Plain Text
Title : frenchforced
Language : French
Default : Yes
Forced : No