Telecharger Le Seigneur des anneaux : les deux tours [BLURAY 720p] French

(TRUEFRENCH = Vraie voix française)

BLURAY 720p | TRUEFRENCH | DTS | Version longue

Le Seigneur des anneaux : les deux tours

Le Seigneur des anneaux : les deux tours

Le Seigneur des anneaux : les deux tours

Origine du film : Américain
Réalisateur : Peter Jackson
Acteurs : Elijah Wood, Sean Astin, Viggo Mortensen
Genre : Fantastique, Aventure, Action
Durée : 3h 55min
Date de sortie : 18 décembre 2002
Année de production : 2002
Titre Original : The Lord of the Rings: The Two Towers
Note spectateurs : Le Seigneur des anneaux : les deux tours 4,2/5 (33923 notes)
Bande annonce : Cliquez ici pour visualiser la bande annonce
Bande annonce :

47f61c6ee64c7f807d15199452334527

19448598″>Cliquez-ici pour voir la bande annonce 47f61c6ee64c7f807d15199452334527″> 19448598

47f61c6ee64c7f807d15199452334527

Le Seigneur des anneaux : les deux tours

Après la mort de Boromir et la disparition de Gandalf, la Communauté s'est scindée en trois. Perdus dans les collines d'Emyn Muil, Frodon et Sam découvrent qu'ils sont suivis par Gollum, une créature versatile corrompue par l'Anneau. Celui-ci promet de conduire les Hobbits jusqu'à la Porte Noire du Mordor. A travers la Terre du Milieu, Aragorn, Legolas et Gimli font route vers le Rohan, le royaume assiégé de Theoden. Cet ancien grand roi, manipulé par l'espion de Saroumane, le sinistre Langue de Serpent, est désormais tombé sous la coupe du malfaisant Magicien. Eowyn, la nièce du Roi, reconnaît en Aragorn un meneur d'hommes. Entretemps, les Hobbits Merry et Pippin, prisonniers des Uruk-hai, se sont échappés et ont découvert dans la mystérieuse Forêt de Fangorn un allié inattendu : Sylvebarbe, gardien des arbres, représentant d'un ancien peuple végétal dont Saroumane a décimé la forêt…

Nom de la release : The.Lord.of.the.Rings.The.Two.Towers.2002.EXTENDED.FRENCH.720p.BluRay.X264-LOST 5704″ style= »display:inline; »>

Le Seigneur des anneaux : les deux tours

Qualité : BLURAY 720p
Format : MKV
Langue : Français
Découpé avec : Winrar
Nombre de fichiers : 11 Fichiers
Taille des fichiers : 1000 Mo + 75 Mo
Taille totale : 10075 Mo

Le Seigneur des anneaux : les deux tours

[11 Liens Interchangeables : 10 x 1000 Mo + 1 x 75 Mo]

Uptobox
Télécharger

Uplea
Télécharger

1fichier
Télécharger

Uploaded
Télécharger

Rapidgator
Télécharger

TurboBit
Télécharger

[Liens PREMIUM]

Uptobox
Télécharger

Uplea
Télécharger

1fichier
Télécharger

Uploaded
Partie 1
Partie 2

TurboBit
Télécharger

NFO :

Afficher / Masquer le texte aaddb5b4be57e6a1b759561537ffbcd0″ class= »text_spoiler » style= »display:none; »>General
Format : Matroska
Format version : Version 2
File size : 9.84 GiB
Duration : 3h 55mn
Overall bit rate : 5 979 Kbps
Writing application : x264.exe
Writing library : mkv2rls v1.3 (date: 2010 aug 28)

Video
ID : 1
Format : AVC
Format/Info : Advanced Video Codec
Format profile : [email protected]
Format settings, CABAC : Yes
Format settings, ReFrames : 5 frames
Codec ID : V_MPEG4/ISO/AVC
Duration : 3h 55mn
Bit rate : 4 468 Kbps
Width : 1 280 pixels
Height : 536 pixels
Display aspect ratio : 2.40:1
Frame rate mode : Constant
Frame rate : 23.976 fps
Color space : YUV
Chroma subsampling : 4:2:0
Bit depth : 8 bits
Scan type : Progressive
Bits/(Pixel*Frame) : 0.272
Stream size : 7.16 GiB (73%)
Writing library : x264 core 115 r2008 4c552d8
Encoding settings : cabac=1 / ref=5 / deblock=1:0:0 / analyse=0x3:0x113 / me=umh / subme=7 / psy=1 / psy_rd=1.00:0.15 / mixed_ref=1 / me_range=16 / chroma_me=1 / trellis=1 / 8x8dct=1 / cqm=0 / deadzone=21,11 / fast_pskip=0 / chroma_qp_offset=-3 / threads=18 / sliced_threads=0 / nr=0 / decimate=1 / interlaced=0 / bluray_compat=0 / constrained_intra=0 / bframes=3 / b_pyramid=2 / b_adapt=1 / b_bias=0 / direct=1 / weightb=1 / open_gop=0 / weightp=2 / keyint=250 / keyint_min=23 / scenecut=40 / intra_refresh=0 / rc_lookahead=40 / rc=2pass / mbtree=1 / bitrate=4468 / ratetol=1.0 / qcomp=0.60 / qpmin=0 / qpmax=69 / qpstep=4 / cplxblur=20.0 / qblur=0.5 / ip_ratio=1.40 / aq=1:1.00
Language : English
Default : Yes
Forced : No

Audio
ID : 2
Format : DTS
Format/Info : Digital Theater Systems
Mode : 16
Format settings, Endianness : Big
Codec ID : A_DTS
Duration : 3h 55mn
Bit rate mode : Constant
Bit rate : 1 509 Kbps
Channel(s) : 6 channels
Channel positions : Front: L C R, Side: L R, LFE
Sampling rate : 48.0 KHz
Bit depth : 16 bits
Compression mode : Lossy
Stream size : 2.48 GiB (25%)
Title : French DTS 1509kbps
Language : French
Default : Yes
Forced : No

Text
ID : 3
Format : UTF-8
Codec ID : S_TEXT/UTF8
Codec ID/Info : UTF-8 Plain Text
Title : French
Language : French
Default : No
Forced : Yes