Télécharger Le Silence de la mer

Qualité BLURAY 1080p | FRENCH | son DTS

Le Silence de la mer

Le Silence de la mer

Origine du film : Français
Réalisateur : Jean-Pierre Melville
Acteurs : Nicole Stephane, Howard Vernon, Ami Aaroe
Genre : Drame
Durée : 1h26min
Année de production : 1949
Note spectateurs : Le Silence de la mer 3,4/5 (135)

Le Silence de la mer

Lors de la derniere guerre mondiale, un officier allemand est loge chez un vieux monsieur et sa niece. Amoureux de la France et de sa culture, l’officier leur rend visite chaque soir pour les entretenir de ses diverses reflexions. Mais les habitant opposent a leur locataire un silence determine. Tel l’ouvrage de Vercors qui parut clandestinement en 1941, ce premier film de Melville fut concu dans des conditions identiques sans autorisation du CNC. « C’etait la premiere fois qu’on essayait d’ebranler les structures syndicales, omnipresentes et dictatoriales de la production francaise. »
104167″ style= »display:inline; »>

Le Silence de la mer

Format : MKV
Découpé avec : Winrar

Le Silence de la mer

Le.Silence.De.La.Mer.1949.1080p.BluRay.x264-CiNEFiLE

(8137 Mo)

[Liens Interchangeables entre hébergeurs: 8x 1000 Mo + 1x 137 Mo]

Uptobox
Télécharger

Uplea
Télécharger

1fichier
Télécharger

Uploaded
Télécharger

Rapidgator
Télécharger

TurboBit
Télécharger

[ Liens Premium ]

Uptobox
Télécharger

Uplea
Télécharger

1fichier
Télécharger

Uploaded
Télécharger

TurboBit
Télécharger

NFO :

Afficher / Masquer le texte 92f53ccbe7a97b1e4f48771656efddab » class= »text_spoiler » style= »display:none; »>Le Silence De La Mer 1949 1080p BluRay x264-CiNEFiLE.zone-telechargement.com.mkv
Format : Matroska
Format version : Version 2
File size : 7.95 GiB
Duration : 1h 26mn
Overall bit rate : 13.1 Mbps
Encoded date : UTC 2010-03-29 14:48:46
Writing application : mkvmerge v2.9.8 (‘C’est le bon’) built on Aug 13 2009 12:49:06
Writing library : libebml v0.7.7 + libmatroska v0.8.1

Video
ID : 1
Format : AVC
Format/Info : Advanced Video Codec
Format profile : [email protected]
Format settings, CABAC : Yes
Format settings, ReFrames : 4 frames
Codec ID : V_MPEG4/ISO/AVC
Duration : 1h 26mn
Bit rate : 11.6 Mbps
Width : 1 488 pixels
Height : 1 080 pixels
Display aspect ratio : 1.378
Frame rate mode : Constant
Frame rate : 24.000 fps
Color space : YUV
Chroma subsampling : 4:2:0
Bit depth : 8 bits
Scan type : Progressive
Bits/(Pixel*Frame) : 0.300
Stream size : 6.87 GiB (86%)
Title : Video
Writing library : x264 core 88 r1471 1144615
Encoding settings : cabac=1 / ref=4 / deblock=1:0:0 / analyse=0x3:0x113 / me=umh / subme=7 / psy=1 / psy_rd=1.00:0.00 / mixed_ref=1 / me_range=16 / chroma_me=1 / trellis=1 / 8x8dct=1 / cqm=0 / deadzone=21,11 / fast_pskip=0 / chroma_qp_offset=-2 / threads=6 / sliced_threads=0 / nr=0 / decimate=1 / mbaff=0 / constrained_intra=0 / bframes=3 / b_pyramid=2 / b_adapt=1 / b_bias=0 / direct=1 / wpredb=1 / wpredp=2 / keyint=250 / keyint_min=25 / scenecut=40 / intra_refresh=0 / rc_lookahead=40 / rc=2pass / mbtree=1 / bitrate=11569 / ratetol=1.0 / qcomp=0.60 / qpmin=10 / qpmax=51 / qpstep=4 / cplxblur=20.0 / qblur=0.5 / ip_ratio=1.40 / aq=1:1.00
Language : French
Default : Yes
Forced : No

Audio
ID : 2
Format : DTS
Format/Info : Digital Theater Systems
Mode : 16
Format settings, Endianness : Big
Codec ID : A_DTS
Duration : 1h 26mn
Bit rate mode : Constant
Bit rate : 1 509 Kbps
Channel count : 2 channels
Channel positions : Front: L R
Sampling rate : 48.0 KHz
Bit depth : 24 bits
Compression mode : Lossy
Stream size : 939 MiB (12%)
Title : French DTS
Language : French
Default : Yes
Forced : No

Text
ID : 3
Format : UTF-8
Codec ID : S_TEXT/UTF8
Codec ID/Info : UTF-8 Plain Text
Language : English
Default : Yes
Forced : No