Telecharger Le Temps d'aimer et le temps de mourir [DVDRiP] French

(TRUEFRENCH = Vraie voix française)

(AC3 = Dolby Digital 5.1)

Qualité BRRiP en .mkv | MULTiLANGUES (Avec TRUEFRENCH) | AC3

Le Temps d'aimer et le temps de mourir

Le Temps d'aimer et le temps de mourir

Le Temps d'aimer et le temps de mourir

Origine du film : Américain
Réalisateur : Douglas Sirk
Acteurs : John Gavin, Liselotte Pulver, Jock Mahoney
Genre : Drame, Guerre
Durée : 2h12min
Date de sortie : 16 janvier 1959
Année de production : 1958
Titre Original : A Time to Love and a Time to Die
Distribué par : Ciné Sorbonne
Note presse : Le Temps d'aimer et le temps de mourir 4,7/5
Note spectateurs : Le Temps d'aimer et le temps de mourir

; »>4,2/5 (117)
Bande annonce :

7d0d1da9b88ef0160fb373df518feebf

19382881″>Cliquez-ici pour voir la bande annonce 7d0d1da9b88ef0160fb373df518feebf »> 19382881

7d0d1da9b88ef0160fb373df518feebf

Le Temps d'aimer et le temps de mourir

1944. Alors qu'il revient dans sa ville natale pour une permission de trois semaines, Ernst Graeber, jeune soldat allemand envoyé sur le front russe, rencontre Elisabeth Kruse, dont il tombe amoureux. Mais la guerre qui continue va bouleverser leur histoire…
56857″ style= »display:inline; »>

Le Temps d'aimer et le temps de mourir

Qualité : BDRiP MKV
Format : MKV
Sous-titre : Multi

Le Temps d'aimer et le temps de mourir

Le.Temps.D.Aimer.Et.Le.Temps.De.Mourir.1958.MULTI.BRRip.x264.AC3-HuSh ( 2000 Mo)

Uptobox
Télécharger

Uplea
Télécharger

1fichier
Télécharger

Free
Télécharger

Mega
Télécharger

Uploaded
Télécharger

TurboBit
Télécharger

NFO :

Afficher / Masquer le texte b30f25abf04c1df16be2ae40e48e68e9″ class= »text_spoiler » style= »display:none; »>Format : Matroska
Format version : Version 4 / Version 2
File size : 1.95 GiB
Duration : 2h 11mn
Overall bit rate mode : Variable
Overall bit rate : 2 122 Kbps
Movie name : Le.Temps.D.Aimer.Et.Le.Temps.De.Mourir.1958.MULTI.BRRip.x264.AC3-HuSh
Encoded date : UTC 2013-10-08 08:30:34
Writing application : mkvmerge v6.3.0 (‘You can’t stop me!’) built on Jun 28 2013 20:09:41
Writing library : libebml v1.3.0 + libmatroska v1.4.0

Video
ID : 1
Format : AVC
Format/Info : Advanced Video Codec
Format profile : [email protected]
Format settings, CABAC : Yes
Format settings, ReFrames : 8 frames
Codec ID : V_MPEG4/ISO/AVC
Duration : 2h 11mn
Bit rate mode : Variable
Bit rate : 1 224 Kbps
Maximum bit rate : 17.5 Mbps
Width : 720 pixels
Height : 304 pixels
Display aspect ratio : 2.35:1
Original display aspect ratio : 2.35:1
Frame rate mode : Constant
Frame rate : 23.976 fps
Color space : YUV
Chroma subsampling : 4:2:0
Bit depth : 8 bits
Scan type : Progressive
Bits/(Pixel*Frame) : 0.233
Stream size : 1.09 GiB (56%)
Title : Vidéo
Writing library : x264 core 135 r2345
Encoding settings : cabac=1 / ref=8 / deblock=1:-1:-1 / analyse=0x3:0x133 / me=umh / subme=9 / psy=1 / psy_rd=1.00:0.00 / mixed_ref=1 / me_range=32 / chroma_me=1 / trellis=2 / 8x8dct=1 / cqm=0 / deadzone=21,11 / fast_pskip=0 / chroma_qp_offset=-2 / threads=3 / lookahead_threads=1 / sliced_threads=0 / nr=0 / decimate=1 / interlaced=0 / bluray_compat=0 / constrained_intra=0 / bframes=3 / b_pyramid=2 / b_adapt=2 / b_bias=0 / direct=3 / weightb=1 / open_gop=0 / weightp=2 / keyint=230 / keyint_min=23 / scenecut=40 / intra_refresh=0 / rc_lookahead=60 / rc=2pass / mbtree=1 / bitrate=1224 / ratetol=1.0 / qcomp=0.60 / qpmin=10 / qpmax=69 / qpstep=4 / cplxblur=20.0 / qblur=0.5 / vbv_maxrate=17500 / vbv_bufsize=17500 / nal_hrd=vbr / ip_ratio=1.40 / aq=1:1.00
Default : Yes
Forced : No

Audio #1
ID : 2
Format : AC-3
Format/Info : Audio Coding 3
Mode extension : CM (complete main)
Format settings, Endianness : Big
Codec ID : A_AC3
Duration : 2h 11mn
Bit rate mode : Constant
Bit rate : 448 Kbps
Channel(s) : 1 channel
Channel positions : Front: C
Sampling rate : 48.0 KHz
Bit depth : 16 bits
Compression mode : Lossy
Stream size : 423 MiB (21%)
Title : Français (Mono AC3 @ 448 Kbps)
Language : French
Default : Yes
Forced : No

Audio #2
ID : 3
Format : AC-3
Format/Info : Audio Coding 3
Mode extension : CM (complete main)
Format settings, Endianness : Big
Codec ID : A_AC3
Duration : 2h 11mn
Bit rate mode : Constant
Bit rate : 448 Kbps
Channel(s) : 1 channel
Channel positions : Front: C
Sampling rate : 48.0 KHz
Bit depth : 16 bits
Compression mode : Lossy
Stream size : 423 MiB (21%)
Title : Anglais (Mono AC3 @ 448 Kbps)
Language : English
Default : No
Forced : No

Text #1
ID : 4
Format : UTF-8
Codec ID : S_TEXT/UTF8
Codec ID/Info : UTF-8 Plain Text
Title : Français
Language : French
Default : No
Forced : No

Text #2
ID : 5
Format : UTF-8
Codec ID : S_TEXT/UTF8
Codec ID/Info : UTF-8 Plain Text
Title : Anglais
Language : English
Default : No
Forced : No

Text #3
ID : 6
Format : UTF-8
Codec ID : S_TEXT/UTF8
Codec ID/Info : UTF-8 Plain Text
Title : Français forcés
Language : French
Default : Yes
Forced : Yes

Jeux Gratuit
15354131_1854970838071206_1069261547_o.png