Telecharger Le Tournant de la vie [DVDRiP] French

(TRUEFRENCH = Vraie voix française)

Qualité DVDRiP mkv | MULTiLANGUES (Avec TRUEFRENCH)

Le Tournant de la vie

Le Tournant de la vie

Origine du film : Américain
Réalisateur : Herbert Ross
Acteurs : Anne Bancroft, Shirley MacLaine, Mikhail Baryshnikov
Genre : Comédie dramatique
Durée : 1h59min
Année de production : 1977
Titre Original : The Turning Point
Note spectateurs : Le Tournant de la vie

; »>3,1/5 (14)

Le Tournant de la vie

L’histoire de deux femmes dont les vies sont vouées à la danse. Deede a arrêté sa carrière de danseuse pour devenir femme au foyer et mère, et dirige maintenant une école de danse dans l’Oklahoma. Emma est toujours dans une compagnie, elle est devenue une star dont la carrière est déjà derrière elle. Toutes deux étaient amies d’enfance et se retrouvent pour parler du passé.
101627″ style= »display:inline; »>

Le Tournant de la vie

Format : MKV

Le Tournant de la vie

Le Tournant de la vie 1977 MULTI.DVDRip.x264.AC3-HuSh

(1370 Mo)

Uptobox
Télécharger

Uploaded
Télécharger

TurboBit
Télécharger

Rapidgator
Télécharger

Uplea
Télécharger

1fichier
Télécharger

NFO :

Afficher / Masquer le texte 18e9bd241531c3c1f12ce8be7a80458a » class= »text_spoiler » style= »display:none; »>■General

Unique ID : 216430099540762892080574821653694314416 (0xA2D2EBC3DA5100B386166084FC66F7B0)

Complete name : F:TorrentLe.Tournant.De.La.Vie.1977.MULTI.DVDRip.x264.AC3-HuShLe.Tournant.De.La.Vie.1977.MULTI.DVDRip.x264.AC3-HuSh.mkv

Format : Matroska

Format version : Version 4 / Version 2

File size : 1.37 GiB

Duration : 1h 54mn

Overall bit rate mode : Variable

Overall bit rate : 1 713 Kbps

Movie name : Le.Tournant.De.La.Vie.1977.MULTI.DVDRip.x264.AC3-HuSh

Encoded date : UTC 2014-02-16 10:00:23

Writing application : mkvmerge v6.3.0 (‘You can’t stop me!’) built on Jun 28 2013 20:09:41

Writing library : libebml v1.3.0 + libmatroska v1.4.0

Video

ID : 1

Format : AVC

Format/Info : Advanced Video Codec

Format profile : [email protected]

Format settings, CABAC : Yes

Format settings, ReFrames : 8 frames

Codec ID : V_MPEG4/ISO/AVC

Duration : 1h 54mn

Bit rate mode : Variable

Bit rate : 1 327 Kbps

Maximum bit rate : 17.5 Mbps

Width : 704 pixels

Height : 384 pixels

Display aspect ratio : 1.85:1

Frame rate mode : Constant

Frame rate : 25.000 fps

Color space : YUV

Chroma subsampling : 4:2:0

Bit depth : 8 bits

Scan type : Progressive

Bits/(Pixel*Frame) : 0.196

Stream size : 1.03 GiB (76%)

Title : Video

Writing library : x264 core 135 r2345

Encoding settings : cabac=1 / ref=8 / deblock=1:-1:-1 / analyse=0x3:0x133 / me=umh / subme=9 / psy=1 / psy_rd=1.00:0.00 / mixed_ref=1 / me_range=32 / chroma_me=1 / trellis=2 / 8x8dct=1 / cqm=0 / deadzone=21,11 / fast_pskip=0 / chroma_qp_offset=-2 / threads=6 / lookahead_threads=1 / sliced_threads=0 / nr=0 / decimate=1 / interlaced=0 / bluray_compat=0 / constrained_intra=0 / bframes=6 / b_pyramid=2 / b_adapt=2 / b_bias=0 / direct=3 / weightb=1 / open_gop=0 / weightp=2 / keyint=250 / keyint_min=25 / scenecut=40 / intra_refresh=0 / rc_lookahead=60 / rc=2pass / mbtree=1 / bitrate=1327 / ratetol=1.0 / qcomp=0.60 / qpmin=10 / qpmax=69 / qpstep=4 / cplxblur=20.0 / qblur=0.5 / vbv_maxrate=17500 / vbv_bufsize=17500 / nal_hrd=vbr / ip_ratio=1.40 / aq=1:1.00

Default : Yes

Forced : No

Audio #1

ID : 2

Format : AC-3

Format/Info : Audio Coding 3

Mode extension : CM (complete main)

Format settings, Endianness : Big

Codec ID : A_AC3

Duration : 1h 54mn

Bit rate mode : Constant

Bit rate : 192 Kbps

Channel(s) : 2 channels

Channel positions : Front: L R

Sampling rate : 48.0 KHz

Compression mode : Lossy

Stream size : 157 MiB (11%)

Title : Franτais (Stereo AC3 @ 192 Kbps)

Language : French

Default : Yes

Forced : No

Audio #2

ID : 3

Format : AC-3

Format/Info : Audio Coding 3

Mode extension : CM (complete main)

Format settings, Endianness : Big

Codec ID : A_AC3

Duration : 1h 54mn

Bit rate mode : Constant

Bit rate : 192 Kbps

Channel(s) : 2 channels

Channel positions : Front: L R

Sampling rate : 48.0 KHz

Compression mode : Lossy

Stream size : 157 MiB (11%)

Title : Anglais (Stereo AC3 @ 192 Kbps)

Language : English

Default : No

Forced : No

Text #1

ID : 4

Format : UTF-8

Codec ID : S_TEXT/UTF8

Codec ID/Info : UTF-8 Plain Text

Title : Franτais

Language : French

Default : No

Forced : No

Text #2

ID : 5

Format : UTF-8

Codec ID : S_TEXT/UTF8

Codec ID/Info : UTF-8 Plain Text

Title : Franτais forcés

Language : French

Default : Yes

Forced : Yes

Text #3

ID : 6

Format : UTF-8

Codec ID : S_TEXT/UTF8

Codec ID/Info : UTF-8 Plain Text

Title : Anglais

Language : English

Default : No

Forced : No