Telecharger Le Transporteur Trilogie [BLURAY 720p] French

BLURAY 720p | FRENCH

Le Transporteur Trilogie

Le Transporteur Trilogie

Le Transporteur Trilogie

Origine du film : Français, américain
Réalisateur : Corey Yuen, Louis Leterrier
Acteurs : Jason Statham, Qi Shu, Matt Schulze
Genre : Action
Durée : 1h 32min
Date de sortie : 2002,2005,2008
Année de production : 2002,2005,2008
Titre Original : The Transporter
Distribué par : EuropaCorp Distribution
Note presse : Le Transporteur Trilogie 2,9/5
Note spectateurs : Le Transporteur Trilogie 2,8/5 (11 196)

Le Transporteur Trilogie

Le Transporteur : Pour les livraisons à haut risque, Franck est toujours là. Comme les autres, il obéit aux trois règles d’or : ne poser aucune question, ne pas ouvrir les colis et ne pas enfreindre les deux premières au risque d’y trouver la mort.Mais cette fois-ci, Franck a ouvert le sac posé dans son coffre et a découvert une jeune femme se nommant Lai. Face à ce cas de conscience et à une sombre affaire de trafic humain, il ne va plus pouvoir fermer les yeux et décide d’aider ce « colis » un peu spécial.

Le Transporteur II : A Miami pour dépanner un ami en vacances, Frank Martin doit conduire un enfant à l’école pendant quelques jours. Mais parce que le père du petit est désormais responsable de la lutte antidrogue, il va se retrouver malgré lui impliqué dans un incroyable complot…

Le Transporteur III : Parce qu’il est le spécialiste incontesté des livraisons à haut risque, Frank Martin se voit contraint, sous la menace, de transporter deux sacs imposants et une jeune Ukrainienne depuis Marseille jusqu’à Odessa. Que contiennent les sacs ? Qui est cette fille? Pourquoi doit-il l’accompagner ? Quels enjeux se cachent derrière cette livraison ? Frank ne sait pas grand-chose, et surtout pas comment il va sortir de ce piège tendu par un adversaire bien plus redoutable que les précédents…

Nom de la release : Le.Transporteur.Trilogie.FRENCH.720p.BluRay.x264-ZT 18350″ style= »display:inline; »>

Qualité : BLURAY 720p
Format : MKV
Langue : Français
Sous-titre : Français
Découpé avec : Winrar
Taille totale : 12.8 GB

[Liens Interchangeables]

1fichier.com
Le Transporteur 1
Le Transporteur 2
Le Transporteur 3

Uptobox.com
Le Transporteur 1
Le Transporteur 2
Le Transporteur 3

Free
Le Transporteur 1
Le Transporteur 2
Le Transporteur 3

Uploaded.net
Le Transporteur 1
Le Transporteur 2
Le Transporteur 3

Le Transporteur 1
Le Transporteur 2
Le Transporteur 3

TurboBit.net
Le Transporteur 1
Le Transporteur 2
Le Transporteur 3

[La Trilogie en Premium]

1fichier.com
Télécharger

Uptobox.com
Télécharger

Free
Télécharger

Uploaded.net
Télécharger

TurboBit.net
Télécharger

NFO :

Afficher / Masquer le texte fbfb4c30c0c62e4d75b92b7cf07213da » class= »text_spoiler » style= »display:none; »>Format : Matroska
File size : 4.30 GiB
Duration : 1h 32mn
Overall bit rate : 6 679 Kbps
Encoded date : UTC 2007-06-13 21:42:11
Writing application : mkvmerge v2.0.2 ('You're My Flame') built on Feb 21 2007 23:40:55
Writing library : libebml v0.7.7 libmatroska v0.8.1

Video
ID : 1
Format : AVC
Format/Info : Advanced Video Codec
Format profile : [email protected]
Format settings, CABAC : Yes
Format settings, ReFrames : 8 frames
Format settings, GOP : N=1
Muxing mode : Container profile=[email protected]
Codec ID : V_MPEG4/ISO/AVC
Duration : 1h 32mn
Bit rate : 6 134 Kbps
Width : 1 280 pixels
Height : 544 pixels
Display aspect ratio : 2.35:1
Frame rate : 23.976 fps
Color space : YUV
Chroma subsampling : 4:2:0
Bit depth : 8 bits
Scan type : Progressive
Bits/(Pixel*Frame) : 0.367
Stream size : 3.80 GiB (88%)
Writing library : x264 core 55 svn-656
Encoding settings : cabac=1 / ref=5 / deblock=1:0:0 / analyse=0x3:0x113 / me=umh / subme=7 / brdo=1 / mixed_ref=1 / me_range=16 / chroma_me=1 / trellis=1 / 8x8dct=1 / cqm=0 / deadzone=21,11 / chroma_qp_offset=0 / threads=3 / nr=0 / decimate=1 / mbaff=0 / bframes=3 / b_pyramid=1 / b_adapt=1 / b_bias=0 / direct=1 / wpredb=1 / bime=1 / keyint=250 / keyint_min=25 / scenecut=40(pre) / rc=abr / bitrate=6134 / ratetol=1.0 / rceq='blurCplx^(1-qComp)' / qcomp=0.60 / qpmin=10 / qpmax=51 / qpstep=4 / ip_ratio=1.40 / pb_ratio=1.30
Language : French

Audio
ID : 2
Format : AC-3
Format/Info : Audio Coding 3
Mode extension : CM (complete main)
Codec ID : A_AC3
Duration : 1h 32mn
Bit rate mode : Constant
Bit rate : 640 Kbps
Channel(s) : 6 channels
Channel positions : Front: L C R, Side: L R, LFE
Sampling rate : 48.0 KHz
Bit depth : 16 bits
Stream size : 422 MiB (10%)
Language : French

General
Complete name : Le.Transporteur.2.FRENCH.720p.BluRay.x264.mkv
Format : Matroska
File size : 4.14 GiB
Duration : 1h 27mn
Overall bit rate : 6 772 Kbps
Encoded date : UTC 2007-02-22 07:24:18
Writing application : mkvmerge v2.0.0 ('After The Rain Has Fallen') built on Jan 13 2007 19:58:56
Writing library : libebml v0.7.7 libmatroska v0.8.0

Video
ID : 1
Format : AVC
Format/Info : Advanced Video Codec
Format profile : [email protected]
Format settings, CABAC : Yes
Format settings, ReFrames : 6 frames
Muxing mode : Container profile=[email protected]
Codec ID : V_MPEG4/ISO/AVC
Duration : 1h 27mn
Bit rate : 6 385 Kbps
Width : 1 280 pixels
Height : 720 pixels
Display aspect ratio : 16:9
Frame rate : 23.976 fps
Color space : YUV
Chroma subsampling : 4:2:0
Bit depth : 8 bits
Scan type : Progressive
Bits/(Pixel*Frame) : 0.289
Stream size : 3.82 GiB (92%)
Writing library : x264 core 54 svn-620M
Encoding settings : cabac=1 / ref=3 / deblock=1:0:0 / analyse=0x3:0x133 / me=hex / subme=6 / brdo=1 / mixed_ref=0 / me_range=16 / chroma_me=1 / trellis=1 / 8x8dct=1 / cqm=2 / deadzone=21,11 / chroma_qp_offset=0 / threads=2 / nr=0 / decimate=1 / mbaff=0 / bframes=3 / b_pyramid=1 / b_adapt=1 / b_bias=0 / direct=1 / wpredb=1 / bime=1 / keyint=250 / keyint_min=25 / scenecut=40(pre) / rc=2pass / bitrate=6385 / ratetol=1.0 / rceq='blurCplx^(1-qComp)' / qcomp=0.60 / qpmin=10 / qpmax=51 / qpstep=4 / cplxblur=20.0 / qblur=0.5 / ip_ratio=1.40 / pb_ratio=1.30
Language : English

Audio
ID : 2
Format : AC-3
Format/Info : Audio Coding 3
Mode extension : CM (complete main)
Codec ID : A_AC3
Duration : 1h 27mn
Bit rate mode : Constant
Bit rate : 384 Kbps
Channel(s) : 6 channels
Channel positions : Front: L C R, Side: L R, LFE
Sampling rate : 48.0 KHz
Bit depth : 16 bits
Stream size : 240 MiB (6%)
Language : French

General
Complete name : Transporter.3.720p.French.BluRay.Ac3.x264-Forcebleue/fb-transporter3-720.mkv
Format : Matroska
File size : 4.37 GiB
Duration : 1h 43mn
Overall bit rate : 6 020 Kbps
Encoded date : UTC 2009-02-24 09:38:28
Writing application : mkvmerge v2.0.2 ('You're My Flame') built on Feb 21 2007 23:40:55
Writing library : libebml v0.7.7 libmatroska v0.8.1

Video
ID : 1
Format : AVC
Format/Info : Advanced Video Codec
Format profile : [email protected]
Format settings, CABAC : Yes
Format settings, ReFrames : 5 frames
Muxing mode : Container profile=[email protected]
Codec ID : V_MPEG4/ISO/AVC
Duration : 1h 43mn
Bit rate : 5 378 Kbps
Width : 1 280 pixels
Height : 544 pixels
Display aspect ratio : 2.35:1
Frame rate : 23.976 fps
Color space : YUV
Chroma subsampling : 4:2:0
Bit depth : 8 bits
Scan type : Progressive
Bits/(Pixel*Frame) : 0.322
Stream size : 3.82 GiB (87%)
Writing library : x264 core 66 r1114 a933a3e
Encoding settings : cabac=1 / ref=5 / deblock=1:0:0 / analyse=0x3:0x133 / me=umh / subme=7 / psy_rd=1.0:0.0 / mixed_ref=1 / me_range=16 / chroma_me=1 / trellis=1 / 8x8dct=1 / cqm=0 / deadzone=21,11 / chroma_qp_offset=-2 / threads=6 / nr=0 / decimate=1 / mbaff=0 / bframes=3 / b_pyramid=1 / b_adapt=1 / b_bias=0 / direct=1 / wpredb=1 / keyint=250 / keyint_min=25 / scenecut=40(pre) / rc=2pass / bitrate=5378 / ratetol=1.0 / qcomp=0.60 / qpmin=10 / qpmax=51 / qpstep=4 / cplxblur=20.0 / qblur=0.5 / ip_ratio=1.40 / pb_ratio=1.30 / aq=1:1.00
Language : English

Audio
ID : 2
Format : AC-3
Format/Info : Audio Coding 3
Mode extension : CM (complete main)
Codec ID : A_AC3
Duration : 1h 43mn
Bit rate mode : Constant
Bit rate : 640 Kbps
Channel(s) : 6 channels
Channel positions : Front: L C R, Side: L R, LFE
Sampling rate : 48.0 KHz
Bit depth : 16 bits
Stream size : 476 MiB (11%)
Title : 5.1
Language : French

Jeux Gratuit
15354131_1854970838071206_1069261547_o.png