Telecharger L'Ecume des jours [BLURAY 720p] French

BLURAY 720p | FRENCH

L'Ecume des jours

L'Ecume des jours

L'Ecume des jours

Origine du film : Français
Réalisateur : Michel Gondry
Acteurs : Romain Duris, Audrey Tautou, Gad Elmaleh
Genre : Comédie dramatique, Fantastique
Durée : 2h 5min
Date de sortie : 24 avril 2013
Année de production : 2013
Distribué par : StudioCanal
Note presse : L'Ecume des jours 3,0/5
Note spectateurs : L'Ecume des jours 2,6/5 (2 775)
Bande annonce :

df8d5c3ccd8a31be76ed02018b36cae8

19487939″>Cliquez-ici pour voir la bande annonce df8d5c3ccd8a31be76ed02018b36cae8″> 19487939

df8d5c3ccd8a31be76ed02018b36cae8

L'Ecume des jours

L’histoire surréelle et poétique d’un jeune homme idéaliste et inventif, Colin, qui rencontre Chloé, une jeune femme semblant être l’incarnation d’un blues de Duke Ellington. Leur mariage idyllique tourne à l’amertume quand Chloé tombe malade d’un nénuphar qui grandit dans son poumon. Pour payer ses soins, dans un Paris fantasmatique, Colin doit travailler dans des conditions de plus en plus absurdes, pendant qu’autour d’eux leur appartement se dégrade et que leur groupe d’amis, dont le talentueux Nicolas, et Chick, fanatique du philosophe Jean-Sol Partre, se délite.

Nom de la release : L.Ecume.Des.Jours.2013.FRENCH.720p.BluRay.x264-LOST 32974″ style= »display:inline; »>

Qualité : BLURAY 720p
Format : MKV
Langue : Français
Sous-titre : Français
Découpé avec : Winrar
Nombre de fichiers : 6 Fichiers
Taille des fichiers : 999 Mo 595 Mo
Taille totale : 5590 Mo

[Liens Interchangeables]

1fichier
Télécharger

Uptobox
Télécharger

Free
Télécharger

Uploaded
Télécharger

Rapidgator
Télécharger

TurboBit
Télécharger

[ 1 lien Premium – 5,5 Go ]

1fichier Premium
Télécharger

Uptobox Premium
Télécharger

Free Premium
Télécharger

TurboBit Premium
Télécharger

[ 2 liens Premium – 3 Go 2,5 Go ]

Uploaded Premium
Partie 1
Partie 2

NFO :

Afficher / Masquer le texte f37c05d2e4c101508addf3b4242b18d7″ class= »text_spoiler » style= »display:none; »>General
Complete name : lost-ecume.720p.mkv
Format : Matroska
Format version : Version 2
File size : 5.46 GiB
Duration : 2h 10mn
Overall bit rate : 5 976 Kbps
Writing application : mkvmerge v4.1.1 ('Bouncin' Back') built on Jul 3 2010 22:54:08
Writing library : libebml v1.0.0 libmatroska v1.0

Video
ID : 1
Format : AVC
Format/Info : Advanced Video Codec
Format profile : [email protected]
Format settings, CABAC : Yes
Format settings, ReFrames : 5 frames
Codec ID : V_MPEG4/ISO/AVC
Duration : 2h 10mn
Bit rate : 4 466 Kbps
Width : 1 280 pixels
Height : 688 pixels
Display aspect ratio : 1.85:1
Frame rate mode : Constant
Frame rate : 24.000 fps
Color space : YUV
Chroma subsampling : 4:2:0
Bit depth : 8 bits
Scan type : Progressive
Bits/(Pixel*Frame) : 0.211
Stream size : 3.97 GiB (73%)
Writing library : x264 core 133 r2334 a3ac64b
Encoding settings : cabac=1 / ref=5 / deblock=1:0:0 / analyse=0x3:0x113 / me=umh / subme=8 / psy=1 / psy_rd=1.00:0.00 / mixed_ref=1 / me_range=16 / chroma_me=1 / trellis=1 / 8x8dct=1 / cqm=0 / deadzone=21,11 / fast_pskip=1 / chroma_qp_offset=-2 / threads=12 / lookahead_threads=2 / sliced_threads=0 / nr=0 / decimate=1 / interlaced=0 / bluray_compat=0 / constrained_intra=0 / bframes=3 / b_pyramid=2 / b_adapt=2 / b_bias=0 / direct=3 / weightb=1 / open_gop=0 / weightp=2 / keyint=240 / keyint_min=24 / scenecut=40 / intra_refresh=0 / rc_lookahead=50 / rc=2pass / mbtree=1 / bitrate=4466 / ratetol=1.0 / qcomp=0.60 / qpmin=0 / qpmax=69 / qpstep=4 / cplxblur=20.0 / qblur=0.5 / ip_ratio=1.40 / aq=1:1.00
Language : English
Default : Yes
Forced : No

Audio
ID : 2
Format : DTS
Format/Info : Digital Theater Systems
Mode : 16
Format settings, Endianness : Big
Codec ID : A_DTS
Duration : 2h 10mn
Bit rate mode : Constant
Bit rate : 1 509 Kbps
Channel(s) : 6 channels
Channel positions : Front: L C R, Side: L R, LFE
Sampling rate : 48.0 KHz
Bit depth : 24 bits
Compression mode : Lossy
Stream size : 1.38 GiB (25%)
Title : French DTS 1509
Language : French
Default : Yes
Forced : No

Text
ID : 3
Format : UTF-8
Codec ID : S_TEXT/UTF8
Codec ID/Info : UTF-8 Plain Text
Title : French_forced
Language : French
Default : Yes
Forced : Yes

Menu
00:00:00.000 : en:00:00:00.000
00:07:35.250 : en:00:07:35.250
00:15:56.708 : en:00:15:56.708
00:24:37.667 : en:00:24:37.667
00:35:31.958 : en:00:35:31.958
00:42:59.125 : en:00:42:59.125
00:54:42.042 : en:00:54:42.042
01:05:12.083 : en:01:05:12.083
01:15:56.833 : en:01:15:56.833
01:24:10.542 : en:01:24:10.542
01:33:21.000 : en:01:33:21.000
01:45:31.375 : en:01:45:31.375
01:56:35.750 : en:01:56:35.750
02:04:30.917 : en:02:04:30.917