Telecharger Legend[BLURAY 720p]

(TRUEFRENCH = Vraie voix française)

Qualité BLURAY 720p | TRUEFRENCH

Origine du film : Britannique, Français
Réalisateur : Brian Helgeland
Acteurs : Tom Hardy, Emily Browning, Paul Anderson
Genre : Policier, Biopic
Durée : 2h 11min
Date de sortie : 20 janvier 2016
Année de production : 2015
Distribué par : StudioCanal
Note presse : 3,0/5
Note spectateurs :
3,8/5 (2076)

Londres, les années 60. Les jumeaux Reggie et Ronnie Kray, célèbres gangsters du Royaume-Uni, règnent en maîtres sur la capitale anglaise. À la tête d’une mafia impitoyable, leur influence paraît sans limites. Pourtant, lorsque la femme de Reggie incite son mari à s’éloigner du business, la chute des frères Kray semble inévitable…
news-id-135956″ style= »display:inline; »>

Format : x264
Découpé avec : Winrar
Sous-titres : Forcé pour les passages en langue étrangère.

Legend.2015.TRUEFRENCH.720p.BluRay.x264-PiNKPANTERS

(4472 Mo)

[Liens Interchangeables entre hébergeurs: 4x 1000 Mo + 1x 472 Mo]

Uptobox
Télécharger

Uplea
Upload en cours…

1fichier
Upload en cours…

Uploaded
Upload en cours…

Rapidgator
Upload en cours…

TurboBit
Upload en cours…

NFO :

686d4514e46cb0e6c4b15896b500b96b » class= »text_spoiler » style= »display:none; »>

Format                      : Matroska
Format version : Version 2
File size : 4.37 GiB
Duration : 2h 11mn
Overall bit rate : 4 773 Kbps
Writing application : mkvmerge v6.6.0 ('The Edge Of The In Between') built on Dec 1 2013 17:55:00
Writing library : libebml v1.3.0 + libmatroska v1.4.1

Video
ID : 1
Format : AVC
Format/Info : Advanced Video Codec
Format profile : [email protected]
Format settings, CABAC : Yes
Format settings, ReFrames : 5 frames
Codec ID : V_MPEG4/ISO/AVC
Duration : 2h 11mn
Bit rate : 4 132 Kbps
Width : 1 280 pixels
Height : 536 pixels
Display aspect ratio : 2.40:1
Frame rate mode : Constant
Frame rate : 24.000 fps
Color space : YUV
Chroma subsampling : 4:2:0
Bit depth : 8 bits
Scan type : Progressive
Bits/(Pixel*Frame) : 0.251
Stream size : 3.70 GiB (85%)
Writing library : x264 core 148 r2692 64f4e24
Encoding settings : cabac=1 / ref=5 / deblock=1:0:0 / analyse=0x3:0x113 / me=umh / subme=8 / psy=1 / psy_rd=1.00:0.00 / mixed_ref=1 / me_range=16 / chroma_me=1 / trellis=1 / 8x8dct=1 / cqm=0 / deadzone=21,11 / fast_pskip=1 / chroma_qp_offset=-2 / threads=12 / lookahead_threads=2 / sliced_threads=0 / nr=0 / decimate=1 / interlaced=0 / bluray_compat=0 / constrained_intra=0 / bframes=3 / b_pyramid=2 / b_adapt=2 / b_bias=0 / direct=3 / weightb=1 / open_gop=0 / weightp=2 / keyint=250 / keyint_min=24 / scenecut=40 / intra_refresh=0 / rc_lookahead=50 / rc=2pass / mbtree=1 / bitrate=4132 / ratetol=1.0 / qcomp=0.60 / qpmin=0 / qpmax=69 / qpstep=4 / cplxblur=20.0 / qblur=0.5 / ip_ratio=1.40 / aq=1:1.00
Language : English
Default : Yes
Forced : No

Audio
ID : 2
Format : AC-3
Format/Info : Audio Coding 3
Mode extension : CM (complete main)
Format settings, Endianness : Big
Codec ID : A_AC3
Duration : 2h 11mn
Bit rate mode : Constant
Bit rate : 640 Kbps
Channel(s) : 6 channels
Channel positions : Front: L C R, Side: L R, LFE
Sampling rate : 48.0 KHz
Compression mode : Lossy
Stream size : 600 MiB (13%)
Title : French
Language : French
Default : Yes
Forced : No

Text
ID : 3
Format : UTF-8
Codec ID : S_TEXT/UTF8
Codec ID/Info : UTF-8 Plain Text
Title : French Forced
Language : frf
Default : Yes
Forced : Yes

Menu
00:00:00.000 : en:00:00:00.000
00:10:25.292 : en:00:10:25.292
00:21:04.917 : en:00:21:04.917
00:30:57.125 : en:00:30:57.125
00:43:26.292 : en:00:43:26.292
00:50:36.958 : en:00:50:36.958
01:02:41.333 : en:01:02:41.333
01:14:28.542 : en:01:14:28.542
01:23:47.583 : en:01:23:47.583
01:33:02.708 : en:01:33:02.708
01:43:27.292 : en:01:43:27.292
01:53:10.875 : en:01:53:10.875

1450
-
Votes : 0
Jeux Gratuit
15354131_1854970838071206_1069261547_o.png