Telecharger Les 4 Fantastiques [BLURAY 720p] French

Qualité BLURAY 720p | TRUEFRENCH | son DTS

Les 4 Fantastiques

Les 4 Fantastiques

Origine du film : Américain
Réalisateur : Josh Trank
Acteurs : Miles Teller, Kate Mara, Michael B. Jordan
Genre : Action, Fantastique
Durée : 1h41min
Date de sortie : 5 août 2015
Année de production : 2015
Titre Original : The Fantastic Four
Distribué par : Twentieth Century Fox France
Note presse : Les 4 Fantastiques 2,0/5
Note spectateurs : Les 4 Fantastiques 1,9/5 (3 780)
Bande annonce :

a975821e8c7ea863b46e4529c12d8e32

19555072″>Cliquez-ici pour voir la bande annonce a975821e8c7ea863b46e4529c12d8e32″> 19555072

a975821e8c7ea863b46e4529c12d8e32

Les 4 Fantastiques

Adaptation moderne et résolument nouvelle de la plus ancienne équipe de super-héros Marvel, le film se concentre sur quatre jeunes génies qui se retrouvent projetés dans un univers alternatif et dangereux, qui modifie leurs formes physiques mais aussi leurs vies de façon radicale. Ils devront apprendre à maîtriser leurs nouvelles capacités et à travailler ensemble pour sauver la Terre d’un ancien allié devenu leur ennemi.
102468″ style= »display:inline; »>

Les 4 Fantastiques

Format : MKV

Les 4 Fantastiques

La version TRUEFRENCH:

Fantastic.Four.2015.TRUEFRENCH.720p.BluRay.x264-Goatlove

(4472 Mo)

[Liens Interchangeables entre hébergeurs: 4x 1000 Mo + 1x 472 Mo]

Uptobox
Télécharger

Uplea
Télécharger

1fichier
Télécharger

Uploaded
Télécharger

Rapidgator
Télécharger

TurboBit
Télécharger

1 Lien Premium – 4.36 Go

Uptobox Premium
Télécharger

Uplea Premium
Télécharger

1fichier Premium
Télécharger

Uploaded Premium
Télécharger

TurboBit Premium
Télécharger

NFO :

Afficher / Masquer le texte 1a6269c24c927666ac97b69473114f21″ class= »text_spoiler » style= »display:none; »>General
Complete name : fantastic.four.2015.truefrench.720p.bluray.x264-goatlove.mkv
Format : Matroska
Format version : Version 2
File size : 4.37 GiB
Duration : 1h 39mn
Overall bit rate : 6 255 Kbps
Writing application : mkvmerge v6.6.0 (‘The Edge Of The In Between’) built on Dec 1 2013 17:55:00
Writing library : libebml v1.3.0 + libmatroska v1.4.1

Video
ID : 1
Format : AVC
Format/Info : Advanced Video Codec
Format profile : [email protected]
Format settings, CABAC : Yes
Format settings, ReFrames : 5 frames
Codec ID : V_MPEG4/ISO/AVC
Duration : 1h 39mn
Bit rate : 5 486 Kbps
Width : 1 280 pixels
Height : 536 pixels
Display aspect ratio : 2.40:1
Frame rate mode : Constant
Frame rate : 23.976 fps
Color space : YUV
Chroma subsampling : 4:2:0
Bit depth : 8 bits
Scan type : Progressive
Bits/(Pixel*Frame) : 0.334
Stream size : 3.74 GiB (86%)
Writing library : x264 core 148 r2638 7599210
Encoding settings : cabac=1 / ref=5 / deblock=1:0:0 / analyse=0x3:0x113 / me=umh / subme=8 / psy=1 / psy_rd=1.00:0.00 / mixed_ref=1 / me_range=16 / chroma_me=1 / trellis=1 / 8x8dct=1 / cqm=0 / deadzone=21,11 / fast_pskip=1 / chroma_qp_offset=-2 / threads=12 / lookahead_threads=2 / sliced_threads=0 / nr=0 / decimate=1 / interlaced=0 / bluray_compat=0 / constrained_intra=0 / bframes=3 / b_pyramid=2 / b_adapt=2 / b_bias=0 / direct=3 / weightb=1 / open_gop=0 / weightp=2 / keyint=250 / keyint_min=23 / scenecut=40 / intra_refresh=0 / rc_lookahead=50 / rc=2pass / mbtree=1 / bitrate=5486 / ratetol=1.0 / qcomp=0.60 / qpmin=0 / qpmax=69 / qpstep=4 / cplxblur=20.0 / qblur=0.5 / ip_ratio=1.40 / aq=1:1.00
Language : English
Default : Yes
Forced : No

Audio
ID : 2
Format : DTS
Format/Info : Digital Theater Systems
Mode : 16
Format settings, Endianness : Big
Codec ID : A_DTS
Duration : 1h 39mn
Bit rate mode : Constant
Bit rate : 768 Kbps
Channel(s) : 6 channels
Channel positions : Front: L C R, Side: L R, LFE
Sampling rate : 48.0 KHz
Bit depth : 24 bits
Compression mode : Lossy
Stream size : 549 MiB (12%)
Title : French
Language : French
Default : Yes
Forced : No

Text
ID : 3
Format : UTF-8
Codec ID : S_TEXT/UTF8
Codec ID/Info : UTF-8 Plain Text
Title : French Forced
Language : frf
Default : Yes
Forced : Yes

Menu
00:00:00.000 : en:00:00:00.000
00:02:30.025 : en:00:02:30.025
00:07:22.609 : en:00:07:22.609
00:11:00.159 : en:00:11:00.159
00:14:59.524 : en:00:14:59.524
00:17:57.785 : en:00:17:57.785
00:22:03.322 : en:00:22:03.322
00:24:44.483 : en:00:24:44.483
00:27:49.877 : en:00:27:49.877
00:30:19.776 : en:00:30:19.776
00:34:56.011 : en:00:34:56.011
00:38:16.377 : en:00:38:16.377
00:43:10.087 : en:00:43:10.087
00:48:16.060 : en:00:48:16.060
00:51:35.301 : en:00:51:35.301
00:54:27.055 : en:00:54:27.055
00:57:18.101 : en:00:57:18.101
01:00:27.833 : en:01:00:27.833
01:04:34.913 : en:01:04:34.913
01:08:04.497 : en:01:08:04.497
01:12:08.282 : en:01:12:08.282
01:15:09.964 : en:01:15:09.964
01:19:10.162 : en:01:19:10.162
01:22:16.515 : en:01:22:16.515
01:24:49.543 : en:01:24:49.543
01:27:01.341 : en:01:27:01.341
01:30:49.569 : en:01:30:49.569
01:33:00.450 : en:01:33:00.450

La version VFQ:

Fantastic.Four.2015.FRENCH.720p.BluRay.x264-ShowFr

(3717 Mo)

[Liens Interchangeables entre hébergeurs: 3x 1000 Mo + 1x 717 Mo]

Uptobox
Télécharger

Uplea
Télécharger

1fichier
Télécharger

Uploaded
Télécharger

Rapidgator
Télécharger

TurboBit
Télécharger

1 Lien Premium – 3.6 Go

Uptobox Premium
Télécharger

Uplea Premium
Télécharger

1fichier Premium
Télécharger

Uploaded Premium
Télécharger

TurboBit Premium
Télécharger

NFO :

Afficher / Masquer le texte 582198764a0635e0004097dc63af8c2c » class= »text_spoiler » style= »display:none; »>
████▒ Fantastic.Four.2015.FRENCH.720p.BluRay.x264-ShowFr
▓██
███
▓██
██
░ ██
▓███▓▓
▒█████▓░
▓██▒▓███▒▒
░░ ░███████████░
▓█▒░ ▒▓▓▓█▓░░░░░░░░
░██ ░███████▓▓ VIDEO & AUDIO
▒█████▓
▒████▒
░███░
███
███ Video Codec….: x264
███ Video Bitrate..: 4749
███ Audio Codec….: AC3
███ Audio Bitrate..: 448
███ Resolution…..: 1280*536 (2.35:1)
███ Frame Rate…..: 23,976
███ Runtime……..: 1h39Min
███ Audio Language.: FRENCH (VFQ)
███ Subtitles……: FR FORCED / FR COMPLET
███ Taille………: 3630 mo
███ Source………: Blu-Ray Complet WIHD / GAIA
███ Release Date…: 26/10/2015
███ Zone………..: 1
███
███
▓░ ███ ▓████████▓░ NOTES & GREETS
█▓████ ▒▓▒▓███▓▓▓ ░ ░
██████▒████████▓▒█