Télécharger Les Affranchis Blu-Ray 1080p/720p FRENCH

(TRUEFRENCH = Vraie voix française)

Qualité BLURAY 720p | MULTiLANGUES (Avec TRUEFRENCH) | son DTS

Les Affranchis

Les Affranchis

Les Affranchis

Origine du film : Américain
Réalisateur : Martin Scorsese
Acteurs : Robert De Niro, Ray Liotta, Joe Pesci
Genre : Policier, Judiciaire
Durée : 2h25min
Date de sortie : 12 septembre 1990
Année de production : 1990
Titre Original : Goodfellas
Note presse : Les Affranchis 5,0/5
Note spectateurs : Les Affranchis 4,4/5 (22 530)
Bande annonce :

013a6f06168d69d308634dec8afd52ac

19553555″>Cliquez-ici pour voir la bande annonce 013a6f06168d69d308634dec8afd52ac »> 19553555

013a6f06168d69d308634dec8afd52ac

Les Affranchis

Depuis sa plus tendre enfance, Henry Hill, né d’un père irlandais et d’une mère sicilienne, veut devenir gangster et appartenir à la Mafia. Adolescent dans les années cinquante, il commence par travailler pour le compte de Paul Cicero et voue une grande admiration pour Jimmy Conway, qui a fait du détournement de camions sa grande spécialité. Lucide et ambitieux, il contribue au casse des entrepôts de l’aéroport d’Idlewild et épouse Karen, une jeune Juive qu’il trompe régulièrement. Mais son implication dans le trafic de drogue le fera plonger…
96805″ style= »display:inline; »>

Les Affranchis

Format : MKV
Découpé avec : Winrar

Les Affranchis

Goodfellas.1990.MULTi.720p.BluRay.x264-RuDE

(8345 Mo)

[Liens Interchangeables entre hébergeurs: 8x 1000 Mo + 1x 345 Mo]

Uptobox
Télécharger

Uploaded
Télécharger

TurboBit
Télécharger

Rapidgator
Télécharger

Uplea
Télécharger

1fichier
Télécharger

[Liens Premium ]

Uptobox
Télécharger

Uploaded
Télécharger

TurboBit
Télécharger

Uplea
Télécharger

1fichier
Télécharger

NFO :

Afficher / Masquer le texte 400443a4567342a3ba2abe2f141adc9c » class= »text_spoiler » style= »display:none; »>
Format : Matroska
Format version : Version 2
File size : 8.15 GiB
Duration : 2h 25mn
Overall bit rate : 8 022 Kbps
Encoded date : UTC 2012-08-27 18:30:14
Writing application : mkvmerge v5.1.0 (‘And so it goes’) built on Nov 28 2011 23:58:28
Writing library : libebml v1.2.3 + libmatroska v1.3.0

Video
ID : 1
Format : AVC
Format/Info : Advanced Video Codec
Format profile : [email protected]
Format settings, CABAC : Yes
Format settings, ReFrames : 8 frames
Muxing mode : Header stripping
Codec ID : V_MPEG4/ISO/AVC
Duration : 2h 25mn
Bit rate : 6 807 Kbps
Width : 1 280 pixels
Height : 720 pixels
Display aspect ratio : 16:9
Frame rate : 23.976 fps
Color space : YUV
Chroma subsampling : 4:2:0
Bit depth : 8 bits
Scan type : Progressive
Bits/(Pixel*Frame) : 0.308
Stream size : 6.75 GiB (83%)
Writing library : x264 core 84 r1416kGIT fcf70c2
Encoding settings : cabac=1 / ref=8 / deblock=1:-3:-3 / analyse=0x3:0x113 / me=umh / subme=9 / psy=1 / psy_rd=1.0:0.3 / mixed_ref=1 / me_range=32 / chroma_me=1 / trellis=2 / 8x8dct=1 / cqm=0 / deadzone=21,11 / fast_pskip=0 / chroma_qp_offset=-4 / threads=6 / sliced_threads=0 / nr=0 / decimate=0 / mbaff=0 / constrained_intra=0 / bframes=6 / b_pyramid=0 / b_adapt=2 / b_bias=0 / direct=1 / wpredb=1 / wpredp=2 / keyint=250 / keyint_min=25 / scenecut=40 / intra_refresh=0 / rc=2pass / mbtree=0 / bitrate=6807 / ratetol=1.0 / qcomp=0.80 / qpmin=10 / qpmax=51 / qpstep=4 / cplxblur=20.0 / qblur=0.5 / ip_ratio=1.10 / pb_ratio=1.10 / aq=1:0.60
Language : English
Default : No
Forced : No

Audio #1
ID : 2
Format : AC-3
Format/Info : Audio Coding 3
Format profile : Dolby Digital
Mode extension : CM (complete main)
Format settings, Endianness : Big
Muxing mode : Header stripping
Codec ID : A_AC3
Duration : 2h 25mn
Bit rate mode : Constant
Bit rate : 192 Kbps
Channel(s) : 2 channels
Channel positions : Front: L R
Sampling rate : 48.0 KHz
Bit depth : 16 bits
Compression mode : Lossy
Stream size : 200 MiB (2%)
Language : French
Default : No
Forced : No

Audio #2
ID : 3
Format : AC-3
Format/Info : Audio Coding 3
Mode extension : CM (complete main)
Format settings, Endianness : Big
Muxing mode : Header stripping
Codec ID : A_AC3
Duration : 2h 25mn
Bit rate mode : Constant
Bit rate : 640 Kbps
Channel(s) : 6 channels
Channel positions : Front: L C R, Side: L R, LFE
Sampling rate : 48.0 KHz
Bit depth : 16 bits
Compression mode : Lossy
Stream size : 666 MiB (8%)
Title : DD 5.1 @ 640 Kbps
Language : English
Default : Yes
Forced : No

Audio #3
ID : 4
Format : AC-3
Format/Info : Audio Coding 3
Format profile : Dolby Digital
Mode extension : CM (complete main)
Format settings, Endianness : Big
Muxing mode : Header stripping
Codec ID : A_AC3
Duration : 2h 25mn
Bit rate mode : Constant
Bit rate : 192 Kbps
Channel(s) : 2 channels
Channel positions : Front: L R
Sampling rate : 48.0 KHz
Bit depth : 16 bits
Compression mode : Lossy
Stream size : 200 MiB (2%)
Title : Cast and Crew Commentary DD 2.0 @ 192 Kbps
Language : English
Default : No
Forced : No

Audio #4
ID : 5
Format : AC-3
Format/Info : Audio Coding 3
Format profile : Dolby Digital
Mode extension : CM (complete main)
Format settings, Endianness : Big
Muxing mode : Header stripping
Codec ID : A_AC3
Duration : 2h 25mn
Bit rate mode : Constant
Bit rate : 192 Kbps
Channel(s) : 2 channels
Channel positions : Front: L R
Sampling rate : 48.0 KHz
Bit depth : 16 bits
Compression mode : Lossy
Stream size : 200 MiB (2%)
Title : Cop and Crook Commentary DD 2.0 @ 192 Kbps
Language : English
Default : No
Forced : No

Text #1
ID : 6
Format : UTF-8
Codec ID : S_TEXT/UTF8
Codec ID/Info : UTF-8 Plain Text
Title : French Forced
Language : French
Default : No
Forced : No

Text #2
ID : 7
Format : UTF-8
Codec ID : S_TEXT/UTF8
Codec ID/Info : UTF-8 Plain Text
Title : French
Language : French
Default : No
Forced : No

Text #3
ID : 8
Format : UTF-8
Codec ID : S_TEXT/UTF8
Codec ID/Info : UTF-8 Plain Text
Language : English
Default : Yes
Forced : No

Jeux Gratuit
15354131_1854970838071206_1069261547_o.png