Telecharger Les Ailes de l'espérance [DVDRiP] French

(TRUEFRENCH = Vraie voix française)

Qualité DVDRiP | TRUEFRENCH

Les Ailes de l'espérance

Les Ailes de l'espérance

Origine du film : Américain
Réalisateur : Douglas Sirk
Acteurs : Rock Hudson, Anna Kashfi, Dan Duryea
Genre : Drame, Guerre, Historique
Durée : 1h48min
Année de production : 1956
Titre Original : Battle Hymn
Note spectateurs : Les Ailes de l'espérance

; »>3,3/5 (8)

Les Ailes de l'espérance

Rongé par le remords, après avoir accidentellement bombardé un orphelinat allemand pendant la Seconde Guerre Mondiale, Dean Hess décide de s’établir en Corée, où il intègre une mission pour s’occuper d’orphelins. Mais, en 1950, il voit ses efforts menacés par le début de la Guerre de Corée.
89877″ style= »display:inline; »>

Les Ailes de l'espérance

Format : XviD

Les Ailes de l'espérance

Les ailes de l’espérance 1956 FRENCH.DVDRiP.XViD.AC3-HuSh

(1360 Mo)

Uptobox
Télécharger

Uploaded
Télécharger

TurboBit
Télécharger

Rapidgator
Télécharger

Uplea
Télécharger

1fichier
Télécharger

NFO :

Afficher / Masquer le texte e3f31f0d766aea73bd73454c008663b0″ class= »text_spoiler » style= »display:none; »>■General

Complete name : G:TorrentLes.Ailes.De.L.Esperance.1956.FRENCH.DVDRiP.XViD.AC3-HuShLes.Ailes.De.L.Esperance.1956.FRENCH.DVDRiP.XViD.AC3-HuSh.avi

Format : AVI

Format/Info : Audio Video Interleave

File size : 1.36 GiB

Duration : 1h 43mn

Overall bit rate : 1 880 Kbps

Movie name : TOUT HUSH SUR team-hush.org

Video

ID : 0

Format : MPEG-4 Visual

Format profile : Advanced [email protected]

Format settings, BVOP : 1

Format settings, QPel : No

Format settings, GMC : No warppoints

Format settings, Matrix : Default (MPEG)

Muxing mode : Packed bitstream

Codec ID : XVID

Codec ID/Hint : XviD

Duration : 1h 43mn

Bit rate : 1 679 Kbps

Width : 672 pixels

Height : 288 pixels

Display aspect ratio : 2.35:1

Frame rate : 25.000 fps

Color space : YUV

Chroma subsampling : 4:2:0

Bit depth : 8 bits

Scan type : Progressive

Compression mode : Lossy

Bits/(Pixel*Frame) : 0.347

Stream size : 1.22 GiB (89%)

Writing library : XviD 1.2.1 (UTC 2008-12-04)

Audio

ID : 1

Format : AC-3

Format/Info : Audio Coding 3

Mode extension : CM (complete main)

Format settings, Endianness : Big

Codec ID : 2000

Duration : 1h 43mn

Bit rate mode : Constant

Bit rate : 192 Kbps

Channel(s) : 2 channels

Channel positions : Front: L R

Sampling rate : 48.0 KHz

Compression mode : Lossy

Stream size : 143 MiB (10%)

Alignment : Split accross interleaves

Interleave, duration : 40 ms (1.00 video frame)

Interleave, preload duratio : 500 ms

Jeux Gratuit
15354131_1854970838071206_1069261547_o.png