Telecharger Les Aventures de Mister Deeds [BLURAY 720p] French

BLURAY 720p | MULTiLANGUES (Avec VFI)

Les Aventures de Mister Deeds

Les Aventures de Mister Deeds

Les Aventures de Mister Deeds

Origine du film : Américain
Réalisateur : Steven Brill
Acteurs : Adam Sandler, Winona Ryder, Steve Buscemi
Genre : Comédie
Durée : 1h37min
Date de sortie : 8 janvier 2003
Année de production : 2001
Titre Original : Mr. Deeds
Distribué par : Columbia TriStar Films
Note presse : Les Aventures de Mister Deeds 2,5/5
Note spectateurs : Les Aventures de Mister Deeds

; »>2,6/5 (456)
Bande annonce :

9fa787e3cf26364d19e802d7080fb321

19447356″>Cliquez-ici pour voir la bande annonce 9fa787e3cf26364d19e802d7080fb321″> 19447356

9fa787e3cf26364d19e802d7080fb321

Les Aventures de Mister Deeds

Longfellow Deeds, un jeune homme charmant et naïf, habite la bourgade de Mandrake Falls, dans le New Hampshire, et fait l'admiration de la population locale qui se bouscule pour l'écouter réciter ses poèmes bizarres dans une pizzeria. Un jour, Chuck Cedar lui annonce qu'il est le seul héritier de Blake, son oncle décédé. Celui-ci lui lègue un empire industriel de quarante milliards de dollars, avec équipes sportives, chaînes de télévision et buildings aux quatre coins du globe.Exerçant sa nouvelle fonction de patron avec pour adjoint Emilio, Deeds impose à son entreprise des règles de gestion basées sur l'honnêteté et la simplicité. Les vieux requins de la finance sont prêts à tout pour le déposséder de sa fortune.Babe Bennett, une journaliste ambitieuse, trouve en la personne de Deeds un sujet de reportage original. Mais tous les deux vont tomber amoureux… 46601″ style= »display:inline; »>

Qualité : BLURAY 720p
Format : MKV
Sous-titre : Français
Découpé avec : Winrar
Nombre de fichiers : 4 Fichiers
Taille des fichiers : 1000 Mo 875 Mo

[Liens Interchangeables]

Mr.Deeds.2002.MULTI.720p.BluRay.x264.AC3-LCDS ( 3875 Mo)

1fichier
Télécharger

Uptobox
Télécharger

Free
Télécharger

Uploaded
Télécharger

Rapidgator
Télécharger

TurboBit
Télécharger

[ 1 Lien Premium – 3,8 Go ]

1fichier
Télécharger

Uptobox
Télécharger

Free
Télécharger

Uploaded
Télécharger

TurboBit
Télécharger

NFO :

Afficher / Masquer le texte 1a4edfba799898b295158b524735bbf1″ class= »text_spoiler » style= »display:none; »>Langue :VOA VFI
Sous-titre :Anglais Français
Codec vidéo :AVC (H.264) – 4969 Kbps
Codec audio :VOA AC3 5.1 448 Kbps / VFI AC3 2.0 192 Kbps

General
Complete name : Mr.Deeds.2002.MULTI.720p.BluRay.x264.AC3-LCDS.mkv
Format : Matroska
Format version : Version 4 / Version 2
File size : 3.78 GiB
Duration : 1h 36mn
Overall bit rate : 5 608 Kbps
Encoded date : UTC 2014-01-15 22:18:24
Writing application : mkvmerge v6.7.0 ('Back to the Ground') 64bit built on Jan 8 2014 15:10:52
Writing library : libebml v1.3.0 libmatroska v1.4.1

Video
ID : 1
Format : AVC
Format/Info : Advanced Video Codec
Format profile : [email protected]
Format settings, CABAC : Yes
Format settings, ReFrames : 5 frames
Codec ID : V_MPEG4/ISO/AVC
Duration : 1h 36mn
Bit rate : 4 969 Kbps
Width : 1 280 pixels
Height : 688 pixels
Display aspect ratio : 1.85:1
Frame rate mode : Constant
Frame rate : 23.976 fps
Color space : YUV
Chroma subsampling : 4:2:0
Bit depth : 8 bits
Scan type : Progressive
Bits/(Pixel*Frame) : 0.235
Stream size : 3.28 GiB (87%)
Title : Video
Writing library : x264 core 107 r1766 f9f0035
Encoding settings : cabac=1 / ref=5 / deblock=1:0:0 / analyse=0x3:0x133 / me=umh / subme=7 / psy=1 / psy_rd=1.00:0.00 / mixed_ref=1 / me_range=16 / chroma_me=1 / trellis=1 / 8x8dct=1 / cqm=0 / deadzone=21,11 / fast_pskip=0 / chroma_qp_offset=-2 / threads=12 / sliced_threads=0 / nr=0 / decimate=1 / interlaced=0 / constrained_intra=0 / bframes=3 / b_pyramid=2 / b_adapt=1 / b_bias=0 / direct=3 / weightb=1 / open_gop=0 / weightp=2 / keyint=240 / keyint_min=24 / scenecut=40 / intra_refresh=0 / rc_lookahead=40 / rc=2pass / mbtree=1 / bitrate=4969 / ratetol=1.0 / qcomp=0.60 / qpmin=10 / qpmax=51 / qpstep=4 / cplxblur=20.0 / qblur=0.5 / ip_ratio=1.40 / aq=1:1.00
Default : Yes
Forced : No

Audio #1
ID : 2
Format : AC-3
Format/Info : Audio Coding 3
Mode extension : CM (complete main)
Format settings, Endianness : Big
Codec ID : A_AC3
Duration : 1h 36mn
Bit rate mode : Constant
Bit rate : 448 Kbps
Channel(s) : 6 channels
Channel positions : Front: L C R, Side: L R, LFE
Sampling rate : 48.0 KHz
Bit depth : 16 bits
Compression mode : Lossy
Stream size : 310 MiB (8%)
Title : Anglais 5.1
Language : English
Default : No
Forced : No

Audio #2
ID : 3
Format : AC-3
Format/Info : Audio Coding 3
Mode extension : CM (complete main)
Format settings, Endianness : Big
Codec ID : A_AC3
Duration : 1h 36mn
Bit rate mode : Constant
Bit rate : 192 Kbps
Channel(s) : 2 channels
Channel positions : Front: L R
Sampling rate : 48.0 KHz
Bit depth : 16 bits
Compression mode : Lossy
Stream size : 133 MiB (3%)
Title : Francais 2.0
Language : French
Default : Yes
Forced : No

Text #1
ID : 4
Format : UTF-8
Codec ID : S_TEXT/UTF8
Codec ID/Info : UTF-8 Plain Text
Title : Anglais
Language : English
Default : No
Forced : No

Text #2
ID : 5
Format : UTF-8
Codec ID : S_TEXT/UTF8
Codec ID/Info : UTF-8 Plain Text
Title : Francais
Language : French
Default : No
Forced : No

Menu
00:00:00.000 : en:00:00:00.000
00:05:49.432 : en:00:05:49.432
00:09:30.487 : en:00:09:30.487
00:18:15.344 : en:00:18:15.344
00:23:24.987 : en:00:23:24.987
00:26:52.402 : en:00:26:52.402
00:32:12.556 : en:00:32:12.556
00:36:16.341 : en:00:36:16.341
00:44:14.068 : en:00:44:14.068
00:47:09.368 : en:00:47:09.368
00:56:20.377 : en:00:56:20.377
00:59:02.038 : en:00:59:02.038
01:07:05.813 : en:01:07:05.813
01:12:37.812 : en:01:12:37.812
01:19:25.469 : en:01:19:25.469
01:23:46.939 : en:01:23:46.939