Telecharger Les Bleus [DVDRiP] French

(TRUEFRENCH = Vraie voix française)

Qualité BDRiP mkv | MULTiLANGUES (Avec TRUEFRENCH)

Les Bleus

Les Bleus

Origine du film : Américain
Réalisateur : Ivan Reitman
Acteurs : Bill Murray, Harold Ramis, Warren Oates
Genre : Comédie
Durée : 1h46min
Date de sortie : 31 mars 1982
Année de production : 1981
Titre Original : Stripes
Note spectateurs : Les Bleus

; »>2,6/5 (53)

Les Bleus

Le même jour, John Winger perd son travail, sa fiancée, son appartement et sa voiture. Avec un ami qui possède une chance similaire, ils s’engagent dans l’armée. Les marches forcées et les parcours du combattant deviennent leur quotidien…
105286″ style= »display:inline; »>

Les Bleus

Format : MKV

Les Bleus

Les Bleus 1981 MULTI.BRRip.x264.AC3-HuSh

(1370 Mo)

Uptobox
Télécharger

Uploaded
Télécharger

TurboBit
Télécharger

Rapidgator
Télécharger

Uplea
Télécharger

1fichier
Télécharger

NFO :

Afficher / Masquer le texte 214342b7a94e94f08e455b3f0dd98c6a » class= »text_spoiler » style= »display:none; »>■General

Unique ID : 191110449419093317289987100146007187659 (0x8FC688A203DA05ACBB15BA487182A0CB)

Complete name : H:Les.Bleus.1981.MULTI.BRRip.x264.AC3-HuShLes.Bleus.1981.MULTI.BRRip.x264.AC3-HuSh.mkv

Format : Matroska

Format version : Version 4 / Version 2

File size : 1.37 GiB

Duration : 2h 2mn

Overall bit rate mode : Variable

Overall bit rate : 1 593 Kbps

Movie name : Les.Bleus.1981.MULTI.BRRip.x264.AC3-HuSh

Encoded date : UTC 2013-11-13 09:49:35

Writing application : mkvmerge v6.4.1 (‘Omega Point’) built on Sep 17 2013 21:21:51

Writing library : libebml v1.3.0 + libmatroska v1.4.1

Video

ID : 1

Format : AVC

Format/Info : Advanced Video Codec

Format profile : [email protected]

Format settings, CABAC : Yes

Format settings, ReFrames : 8 frames

Codec ID : V_MPEG4/ISO/AVC

Duration : 2h 2mn

Bit rate mode : Variable

Bit rate : 1 015 Kbps

Maximum bit rate : 17.5 Mbps

Width : 704 pixels

Height : 384 pixels

Display aspect ratio : 1.85:1

Frame rate mode : Constant

Frame rate : 23.976 fps

Color space : YUV

Chroma subsampling : 4:2:0

Bit depth : 8 bits

Scan type : Progressive

Bits/(Pixel*Frame) : 0.157

Stream size : 867 MiB (62%)

Writing library : x264 core 138 r2345

Encoding settings : cabac=1 / ref=8 / deblock=1:-1:-1 / analyse=0x3:0x133 / me=umh / subme=9 / psy=1 / psy_rd=1.00:0.00 / mixed_ref=1 / me_range=32 / chroma_me=1 / trellis=2 / 8x8dct=1 / cqm=0 / deadzone=21,11 / fast_pskip=0 / chroma_qp_offset=-2 / threads=6 / lookahead_threads=1 / sliced_threads=0 / nr=0 / decimate=1 / interlaced=0 / bluray_compat=0 / constrained_intra=0 / bframes=7 / b_pyramid=2 / b_adapt=2 / b_bias=0 / direct=3 / weightb=1 / open_gop=0 / weightp=2 / keyint=230 / keyint_min=23 / scenecut=40 / intra_refresh=0 / rc_lookahead=60 / rc=2pass / mbtree=1 / bitrate=1015 / ratetol=1.0 / qcomp=0.60 / qpmin=10 / qpmax=69 / qpstep=4 / cplxblur=20.0 / qblur=0.5 / vbv_maxrate=17500 / vbv_bufsize=17500 / nal_hrd=vbr / ip_ratio=1.40 / aq=1:1.00

Language : French

Default : Yes

Forced : No

Audio #1

ID : 2

Format : AC-3

Format/Info : Audio Coding 3

Mode extension : CM (complete main)

Format settings, Endianness : Big

Codec ID : A_AC3

Duration : 2h 2mn

Bit rate mode : Constant

Bit rate : 384 Kbps

Channel(s) : 6 channels

Channel positions : Front: L C R, Side: L R, LFE

Sampling rate : 48.0 KHz

Compression mode : Lossy

Stream size : 338 MiB (24%)

Title : AC3 5.1

Language : French

Default : Yes

Forced : No

Audio #2

ID : 3

Format : AC-3

Format/Info : Audio Coding 3

Mode extension : CM (complete main)

Format settings, Endianness : Big

Codec ID : A_AC3

Duration : 2h 2mn

Bit rate mode : Constant

Bit rate : 192 Kbps

Channel(s) : 2 channels

Channel positions : Front: L R

Sampling rate : 48.0 KHz

Compression mode : Lossy

Stream size : 169 MiB (12%)

Title : AC3 2.0

Language : English

Default : No

Forced : No

Text #1

ID : 4

Format : UTF-8

Codec ID : S_TEXT/UTF8

Codec ID/Info : UTF-8 Plain Text

Title : French Forced

Language : French

Default : Yes

Forced : No

Text #2

ID : 5

Format : UTF-8

Codec ID : S_TEXT/UTF8

Codec ID/Info : UTF-8 Plain Text

Title : French

Language : French

Default : No

Forced : No

Text #3

ID : 6

Format : UTF-8

Codec ID : S_TEXT/UTF8

Codec ID/Info : UTF-8 Plain Text

Title : English

Language : English

Default : No

Forced : No

Jeux Gratuit
15354131_1854970838071206_1069261547_o.png