Telecharger Les Chemins de la liberté [BLURAY 720p] French

(TRUEFRENCH = Vraie voix française)

BLURAY 720p | TRUEFRENCH | DTS

Les Chemins de la liberté

Les Chemins de la liberté

Les Chemins de la liberté

Origine du film : Américain, polonais, émirati
Réalisateur : Peter Weir
Acteurs : Jim Sturgess, Ed Harris, Saoirse Ronan
Genre : Aventure, Drame
Durée : 2h14min
Date de sortie : 26 janvier 2011
Année de production : 2010
Titre Original : The Way Back
Distribué par : Metropolitan FilmExport
Note presse : Les Chemins de la liberté 3,1/5
Note spectateurs : Les Chemins de la liberté 3,8/5 (3 831)
Bande annonce :

b7b4f93818fa3d6168032d78843ab31d

19184736″>Cliquez-ici pour voir la bande annonce b7b4f93818fa3d6168032d78843ab31d »> 19184736

b7b4f93818fa3d6168032d78843ab31d

Les Chemins de la liberté

En 1940, une petite troupe de prisonniers décide de s’évader d’un camp de travail sibérien.Pour ces hommes venus de tous les horizons, s’échapper de cet enfer ne sera que le début de l’aventure…Ensemble, ils vont parcourir plus de 10 000 kilomètres, à travers la toundra sibérienne glacée, traversant les plaines de Mongolie, les fournaises du désert de Gobi puis les sommets de l’Himalaya pour franchir la Grande Muraille de Chine.Certains s’arrêteront en chemin, d’autres ne survivront pas aux épreuves. L’Inde – alors sous contrôle anglais – est le but ultime.Mais la route est longue, les rencontres risquées, les conditions physiques épouvantables, et chacun a ses secrets… 45307″ style= »display:inline; »>

Qualité : BLURAY 720p
Format : MKV
Langue : Français
Sous-titre : Français
Découpé avec : Winrar
Nombre de fichiers : 6 Fichiers
Taille des fichiers : 1000 Mo 587 Mo

[6 Liens Interchangeables : 5 x 1000 Mo 1 x 587 Mo]

The.Way.Back.2010.TRUEFRENCH.720p.BluRay.x264 ( 5587 Mo)

1fichier
Télécharger

Uptobox
Télécharger

Uploaded
Télécharger

Rapidgator
Télécharger

TurboBit
Télécharger

[1 Lien PREMIUM : 1 x 5.45 GB]

1fichier
Télécharger

Uptobox
Télécharger

TurboBit
Télécharger

[2 Liens PREMIUM]

Uploaded
Partie 1
Partie 2

NFO :

Afficher / Masquer le texte 906215d66188ea31ffd40e11693342de » class= »text_spoiler » style= »display:none; »>General
Format : Matroska
Format version : Version 2
File size : 5.46 GiB
Duration : 2h 12mn
Overall bit rate : 5 879 Kbps
Encoded date : UTC 2011-05-24 21:35:00
Writing application : mkvmerge v4.1.1 ('Bouncin' Back') built on Jul 3 2010 22:54:08
Writing library : libebml v1.0.0 libmatroska v1.0.0

Video
ID : 1
Format : AVC
Format/Info : Advanced Video Codec
Format profile : [email protected]
Format settings, CABAC : Yes
Format settings, ReFrames : 5 frames
Codec ID : V_MPEG4/ISO/AVC
Duration : 2h 12mn
Bit rate : 4 369 Kbps
Width : 1 280 pixels
Height : 544 pixels
Display aspect ratio : 2.35:1
Frame rate mode : Constant
Frame rate : 24.000 fps
Color space : YUV
Chroma subsampling : 4:2:0
Bit depth : 8 bits
Scan type : Progressive
Bits/(Pixel*Frame) : 0.261
Stream size : 3.95 GiB (72%)
Writing library : x264 core 115 r1995 c1e60b9
Encoding settings : cabac=1 / ref=5 / deblock=1:0:0 / analyse=0x3:0x113 / me=umh / subme=7 / psy=1 / psy_rd=1.00:0.15 / mixed_ref=1 / me_range=16 / chroma_me=1 / trellis=1 / 8x8dct=1 / cqm=0 / deadzone=21,11 / fast_pskip=0 / chroma_qp_offset=-3 / threads=12 / sliced_threads=0 / nr=0 / decimate=1 / interlaced=0 / bluray_compat=0 / constrained_intra=0 / bframes=3 / b_pyramid=2 / b_adapt=1 / b_bias=0 / direct=1 / weightb=1 / open_gop=0 / weightp=2 / keyint=250 / keyint_min=24 / scenecut=40 / intra_refresh=0 / rc_lookahead=40 / rc=2pass / mbtree=1 / bitrate=4369 / ratetol=1.0 / qcomp=0.60 / qpmin=0 / qpmax=69 / qpstep=4 / cplxblur=20.0 / qblur=0.5 / ip_ratio=1.40 / aq=1:1.00
Language : English
Default : Yes
Forced : No

Audio
ID : 2
Format : DTS
Format/Info : Digital Theater Systems
Mode : 16
Format settings, Endianness : Big
Codec ID : A_DTS
Duration : 2h 12mn
Bit rate mode : Constant
Bit rate : 1 509 Kbps
Channel(s) : 6 channels
Channel positions : Front: L C R, Side: L R, LFE
Sampling rate : 48.0 KHz
Bit depth : 24 bits
Compression mode : Lossy
Stream size : 1.40 GiB (26%)
Language : French
Default : Yes
Forced : No

Text
ID : 3
Format : UTF-8
Codec ID : S_TEXT/UTF8
Codec ID/Info : UTF-8 Plain Text
Language : French
Default : No
Forced : No