Télécharger Les Chiens de paille

Qualité BLURAY 1080p | MULTiLANGUES

Les Chiens de paille

Les Chiens de paille

Les Chiens de paille

Origine du film : Américain, Britannique
Réalisateur : Sam Peckinpah
Acteurs : Dustin Hoffman, Susan George, Peter Vaughan
Genre : Drame, Thriller
Durée : 1h53min
Date de sortie : 9 février 1972
Année de production : 1971
Titre Original : Straw Dogs
Note spectateurs : Les Chiens de paille 3,9/5 (1 441)
Bande annonce :

48a50be98b6e8c7badfcb3d6b5fecb3f

19422333″>Cliquez-ici pour voir la bande annonce 48a50be98b6e8c7badfcb3d6b5fecb3f »> 19422333

48a50be98b6e8c7badfcb3d6b5fecb3f

Les Chiens de paille

David, jeune mathématicien, fuit l’Amérique et son atmosphère orageuse. Il émigre en Cornouailles où il est confronté dès son arrivée à l’agressivité des autochtones. Atteint dans ses convictions, il aura lui aussi recours a une violence qu’il combat.
104065″ style= »display:inline; »>

Les Chiens de paille

Format : MKV
Découpé avec : Winrar

Les Chiens de paille

Straw.Dogs.1971.MULTi.1080p.BluRay.x264-iND

(9332 Mo)

[Liens Interchangeables entre hébergeurs: 9x 1000 Mo + 1x 332 Mo]

Uptobox
Télécharger

Uplea
Télécharger

1fichier
Télécharger

Uploaded
Télécharger

Rapidgator
Télécharger

TurboBit
Télécharger

[ Liens Premium ]

Uptobox
Télécharger

Uplea
Télécharger

1fichier
Télécharger

Uploaded
Télécharger

TurboBit
Télécharger

NFO :

Afficher / Masquer le texte cab7d07521683c41fde76d6e15fb862e » class= »text_spoiler » style= »display:none; »>Straw Dogs 1971 MULTi 1080p BluRay x264-iND.zone-telechargement.com.mkv
Format : Matroska
Format version : Version 4 / Version 2
File size : 9.11 GiB
Duration : 1h 57mn
Overall bit rate : 11.1 Mbps
Encoded date : UTC 2013-07-22 22:17:39
Writing application : mkvmerge v6.1.0 (‘Old Devil’) built on Mar 2 2013 14:32:37
Writing library : libebml v1.3.0 + libmatroska v1.4.0

Video
ID : 1
Format : AVC
Format/Info : Advanced Video Codec
Format profile : [email protected]
Format settings, CABAC : Yes
Format settings, ReFrames : 4 frames
Codec ID : V_MPEG4/ISO/AVC
Duration : 1h 57mn
Bit rate : 9 109 Kbps
Width : 1 920 pixels
Height : 1 040 pixels
Display aspect ratio : 1.85:1
Frame rate mode : Constant
Frame rate : 23.976 fps
Color space : YUV
Chroma subsampling : 4:2:0
Bit depth : 8 bits
Scan type : Progressive
Bits/(Pixel*Frame) : 0.190
Stream size : 7.32 GiB (80%)
Writing library : x264 core 116 r2074 2641b9e
Encoding settings : cabac=1 / ref=4 / deblock=1:0:0 / analyse=0x3:0x113 / me=umh / subme=8 / psy=1 / psy_rd=1.00:0.00 / mixed_ref=1 / me_range=16 / chroma_me=1 / trellis=1 / 8x8dct=1 / cqm=0 / deadzone=21,11 / fast_pskip=1 / chroma_qp_offset=-2 / threads=12 / sliced_threads=0 / nr=0 / decimate=1 / interlaced=0 / bluray_compat=0 / constrained_intra=0 / bframes=3 / b_pyramid=2 / b_adapt=2 / b_bias=0 / direct=3 / weightb=1 / open_gop=0 / weightp=2 / keyint=240 / keyint_min=24 / scenecut=40 / intra_refresh=0 / rc_lookahead=50 / rc=2pass / mbtree=1 / bitrate=9109 / ratetol=1.0 / qcomp=0.60 / qpmin=0 / qpmax=69 / qpstep=4 / cplxblur=20.0 / qblur=0.5 / ip_ratio=1.40 / aq=1:1.00
Language : English
Default : Yes
Forced : No

Audio #1
ID : 2
Format : DTS
Format/Info : Digital Theater Systems
Mode : 16
Format settings, Endianness : Big
Codec ID : A_DTS
Duration : 1h 57mn
Bit rate mode : Constant
Bit rate : 1 509 Kbps
Channel count : 6 channels
Channel positions : Front: L C R, Side: L R, LFE
Sampling rate : 48.0 KHz
Bit depth : 24 bits
Compression mode : Lossy
Stream size : 1.24 GiB (14%)
Title : ENG DTS
Language : English
Default : No
Forced : No

Audio #2
ID : 4
Format : AC-3
Format/Info : Audio Coding 3
Mode extension : CM (complete main)
Format settings, Endianness : Big
Codec ID : A_AC3
Duration : 1h 57mn
Bit rate mode : Constant
Bit rate : 448 Kbps
Channel count : 2 channels
Channel positions : Front: L R
Sampling rate : 48.0 KHz
Bit depth : 16 bits
Compression mode : Lossy
Delay relative to video : 10s 900ms
Stream size : 378 MiB (4%)
Title : FR AC3
Language : French
Default : Yes
Forced : Yes

Text #1
ID : 3
Format : UTF-8
Codec ID : S_TEXT/UTF8
Codec ID/Info : UTF-8 Plain Text
Title : ENG
Language : English
Default : No
Forced : No

Text #2
ID : 5
Format : UTF-8
Codec ID : S_TEXT/UTF8
Codec ID/Info : UTF-8 Plain Text
Title : FR
Language : French
Default : No
Forced : No