Telecharger Les Demoiselles de Rochefort [DVDRiP] French

Qualité BLURAY 1080p | FRENCH | son DTS

Les Demoiselles de Rochefort

Les Demoiselles de Rochefort

Origine du film : Français
Réalisateur : Jacques Demy
Acteurs : Catherine Deneuve, Françoise Dorléac, Anne Germain
Genre : Comédie musicale
Durée : 2h4min
Date de sortie : 8 mars 1967
Année de production : 1967
Distribué par : Ciné-Tamaris
Note spectateurs : Les Demoiselles de Rochefort

; »>3,3/5 (1 396)
Bande annonce :

b84d419c421517d1f379e21256515312

19537567″>Cliquez-ici pour voir la bande annonce b84d419c421517d1f379e21256515312″> 19537567

b84d419c421517d1f379e21256515312

Les Demoiselles de Rochefort

Delphine et Solange sont deux jumelles de 25 ans, ravissantes et spirituelles. Delphine, la blonde, donne des leçons de danse et Solange, la rousse, des cours de solfège. Elle vivent dans la musique comme d’autres vivent dans la lune et rêvent de rencontrer le grand amour au coin de la rue. Justement des forains arrivent en ville et fréquentent le bar que tient la mère des jumelles. Une grande foire se prépare et un marin rêveur cherche son idéal féminin…
103696″ style= »display:inline; »>

Les Demoiselles de Rochefort

Format : MKV
Découpé avec : Winrar

Les Demoiselles de Rochefort

The.Young.Girls.of.Rochefort.1967.FRENCH.1080p.BluRay.x264-PHOBOS

(10077 Mo)

[Liens Interchangeables entre hébergeurs: 10x 1000 Mo + 1x 77 Mo]

Uptobox
Télécharger

Uplea
Télécharger

1fichier
Télécharger

Uploaded
Télécharger

Rapidgator
Télécharger

TurboBit
Télécharger

[ Liens Premium ]

Uptobox
Télécharger

Uplea
Télécharger

1fichier
Télécharger

Uploaded
Télécharger

TurboBit
Télécharger

NFO :

Afficher / Masquer le texte 68dd7faa80dfacd08ca0e08a532e3c2a » class= »text_spoiler » style= »display:none; »>The.Young.Girls.of.Rochefort.1967.FRENCH.1080p.BluRay.x264-PHOBOS.zone-telechargement.com.mkv
Format : Matroska
Format version : Version 4 / Version 2
File size : 9.84 GiB
Duration : 2h 4mn
Overall bit rate : 11.3 Mbps
Encoded date : UTC 2014-08-09 21:26:45
Writing application : mkvmerge v7.0.0 (‘Where We Going’) 64bit built on Jun 21 2014 23:29:08
Writing library : Lavf55.33.100
DURATION : 02:04:01.667000000
NUMBER_OF_FRAMES : 1542
NUMBER_OF_BYTES : 58878
_STATISTICS_WRITING_APP : mkvmerge v7.0.0 (‘Where We Going’) 64bit built on Jun 21 2014 23:29:08
_STATISTICS_WRITING_DATE_UT : 2014-08-09 21:26:45
_STATISTICS_TAGS : BPS DURATION NUMBER_OF_FRAMES NUMBER_OF_BYTES

Video
ID : 1
Format : AVC
Format/Info : Advanced Video Codec
Format profile : [email protected]
Format settings, CABAC : Yes
Format settings, ReFrames : 5 frames
Codec ID : V_MPEG4/ISO/AVC
Duration : 2h 4mn
Bit rate : 9 815 Kbps
Width : 1 920 pixels
Height : 800 pixels
Display aspect ratio : 2.40:1
Frame rate mode : Constant
Frame rate : 24.000 fps
Color space : YUV
Chroma subsampling : 4:2:0
Bit depth : 8 bits
Scan type : Progressive
Bits/(Pixel*Frame) : 0.266
Stream size : 8.33 GiB (85%)
Writing library : x264 core 142 r2431M ac76440
Encoding settings : cabac=1 / ref=5 / deblock=1:0:0 / analyse=0x3:0x133 / me=umh / subme=10 / psy=1 / psy_rd=1.00:0.00 / mixed_ref=1 / me_range=24 / chroma_me=1 / trellis=2 / 8x8dct=1 / cqm=0 / deadzone=21,11 / fast_pskip=1 / chroma_qp_offset=-2 / threads=12 / lookahead_threads=2 / sliced_threads=0 / nr=0 / decimate=1 / interlaced=0 / bluray_compat=0 / constrained_intra=0 / bframes=8 / b_pyramid=2 / b_adapt=2 / b_bias=0 / direct=3 / weightb=1 / open_gop=0 / weightp=2 / keyint=250 / keyint_min=24 / scenecut=40 / intra_refresh=0 / rc_lookahead=60 / rc=2pass / mbtree=1 / bitrate=9815 / ratetol=1.0 / qcomp=0.60 / qpmin=0 / qpmax=69 / qpstep=4 / cplxblur=20.0 / qblur=0.5 / ip_ratio=1.40 / aq=1:1.00
Default : Yes
Forced : No
_STATISTICS_WRITING_APP : mkvmerge v7.0.0 (‘Where We Going’) 64bit built on Jun 21 2014 23:29:08
_STATISTICS_WRITING_DATE_UT : 2014-08-05 21:32:32
_STATISTICS_TAGS : BPS DURATION NUMBER_OF_FRAMES NUMBER_OF_BYTES
DURATION : 02:04:24.000000000
NUMBER_OF_FRAMES : 179136
NUMBER_OF_BYTES : 9156840656

Audio
ID : 2
Format : DTS
Format/Info : Digital Theater Systems
Mode : 16
Format settings, Endianness : Big
Codec ID : A_DTS
Duration : 2h 4mn
Bit rate mode : Constant
Bit rate : 1 509 Kbps
Channel(s) : 2 channels
Channel positions : Front: L R
Sampling rate : 48.0 KHz
Bit depth : 16 bits
Compression mode : Lossy
Stream size : 1.31 GiB (13%)
Language : French
Default : Yes
Forced : No

Text #1
ID : 3
Format : UTF-8
Codec ID : S_TEXT/UTF8
Codec ID/Info : UTF-8 Plain Text
Language : English
Default : Yes
Forced : No

Text #2
ID : 4
Format : UTF-8
Codec ID : S_TEXT/UTF8
Codec ID/Info : UTF-8 Plain Text
Title : SDH
Language : French
Default : No
Forced : No

Jeux Gratuit
15354131_1854970838071206_1069261547_o.png