Telecharger Les Diaboliques [DVDRiP] French

Qualité BLURAY 1080p | FRENCH

Les Diaboliques

Les Diaboliques

Origine du film : Français
Réalisateur : Henri-Georges Clouzot
Acteurs : Noël Roquevert, Simone Signoret, Vera Clouzot
Genre : Drame, Epouvante-horreur, Thriller
Durée : 1h54min
Date de sortie : 29 janvier 1955
Année de production : 1954
Note spectateurs : Les Diaboliques

; »>4,1/5 (2 227)
Bande annonce :

3fc672def1699ff59deeacc729a20f04

19457877″>Cliquez-ici pour voir la bande annonce 3fc672def1699ff59deeacc729a20f04″> 19457877

3fc672def1699ff59deeacc729a20f04

Les Diaboliques

Dans une institution destinée à l’éducation des jeunes garçons, Christina et Nicole, respectivement épouse et maîtresse du directeur Michel Delasalle, s’associent afin d’assassiner l’homme qu’ells ont fini par haïr. Mais quelques jours après leur méfait, le corps de Michel disparaît…
100589″ style= »display:inline; »>

Les Diaboliques

Format : MKV
Découpé avec : Winrar

Les Diaboliques

Les Diaboliques 1955 FRENCH 1080p BluRay X264-PROFOUND

(7823 Mo)

[Liens Interchangeables entre hébergeurs: 7x 1000 Mo + 1x 823 Mo]

Uptobox
Télécharger

Uplea
Télécharger

1fichier
Télécharger

Uploaded
Télécharger

Rapidgator
Télécharger

TurboBit
Télécharger

[ Liens Premium ]

Uptobox
Télécharger

Uplea
Télécharger

1fichier
Télécharger

Uploaded
Télécharger

TurboBit
Télécharger

NFO :

Afficher / Masquer le texte 8c65eb0e0a785996953e732d2dc90616″ class= »text_spoiler » style= »display:none; »>Video
ID : 1
Format : AVC
Format/Info : Advanced Video Codec
Format profile : [email protected]
Format settings, CABAC : Yes
Format settings, ReFrames : 4 frames
Codec ID : V_MPEG4/ISO/AVC
Duration : 1h 56mn
Bit rate : 8 912 Kbps
Width : 1 440 pixels
Height : 1 080 pixels
Display aspect ratio : 4:3
Frame rate mode : Constant
Frame rate : 23.976 fps
Color space : YUV
Chroma subsampling : 4:2:0
Bit depth : 8 bits
Scan type : Progressive
Bits/(Pixel*Frame) : 0.239
Stream size : 7.12 GiB (93%)
Writing library : x264 core 115 r1937 aa21558
Encoding settings : cabac=1 / ref=4 / deblock=1:0:0 / analyse=0x3:0x133 / me=umh / subme=7 / psy=1 / psy_rd=1.00:0.00 / mixed_ref=1 / me_range=16 / chroma_me=1 / trellis=1 / 8x8dct=1 / cqm=0 / deadzone=21,11 / fast_pskip=0 / chroma_qp_offset=-2 / threads=12 / sliced_threads=0 / nr=0 / decimate=1 / interlaced=0 / bluray_compat=0 / constrained_intra=0 / bframes=3 / b_pyramid=2 / b_adapt=1 / b_bias=0 / direct=1 / weightb=1 / open_gop=0 / weightp=2 / keyint=250 / keyint_min=23 / scenecut=40 / intra_refresh=0 / rc_lookahead=40 / rc=2pass / mbtree=1 / bitrate=8912 / ratetol=1.0 / qcomp=0.60 / qpmin=0 / qpmax=69 / qpstep=4 / cplxblur=20.0 / qblur=0.5 / ip_ratio=1.40 / aq=1:1.00
Language : English
Default : Yes
Forced : No

Audio
ID : 2
Format : AC-3
Format/Info : Audio Coding 3
Mode extension : CM (complete main)
Format settings, Endianness : Big
Codec ID : A_AC3
Duration : 1h 56mn
Bit rate mode : Constant
Bit rate : 448 Kbps
Channel(s) : 1 channel
Channel positions : Front: C
Sampling rate : 48.0 KHz
Compression mode : Lossy
Stream size : 374 MiB (5%)
Language : French
Default : Yes
Forced : No

Text
ID : 3
Format : UTF-8
Codec ID : S_TEXT/UTF8
Codec ID/Info : UTF-8 Plain Text
Language : English
Default : Yes
Forced : No

Jeux Gratuit
15354131_1854970838071206_1069261547_o.png