Telecharger Les Dix commandements [DVDRiP] French

(TRUEFRENCH = Vraie voix française)

BLURAY 1080p | TRUEFRENCH

Les Dix commandements

Les Dix commandements

Les Dix commandements

Origine du film : Américain
Réalisateur : Cecil B. DeMille
Acteurs : Charlton Heston, Yul Brynner, Anne Baxter
Genre : Aventure, Drame, Action
Durée : 3h40min
Date de sortie : mai 1955
Année de production : 1956
Titre Original : The Ten Commandments
Distribué par : Swashbuckler Films
Note spectateurs : Les Dix commandements

; »>3,6/5 (2 687)
Bande annonce :

ec780d32ceb1c67f4ee3cefd45797d02

18652843″>Cliquez-ici pour voir la bande annonce ec780d32ceb1c67f4ee3cefd45797d02″> 18652843

ec780d32ceb1c67f4ee3cefd45797d02

Les Dix commandements

Evocation de la vie de Moïse, sauvé à sa naissance par la propre fille du pharaon, qui avait décidé de mettre à mort tous les nouveaux-nés hébreux, de peur que les fils d'Israël ne deviennent plus nombreux que les Egyptiens. 
53091″ style= »display:inline; »>

Les Dix commandements

Qualité : BLURAY 1080p
Format : MKV
Langue : Français
Sous-titre : Français
Découpé avec : Winrar
Nombre de fichiers : 21 Fichiers
Taille des fichiers : 1000 Mo + 194 Mo

Les Dix commandements

[21 Liens Interchangeables : 20 x 1000 Mo + 1 x 194 Mo]

Les.Dix.Commandements.1956.FRENCH.BluRay.1080p.x264-DREAM ( 20194 Mo)

Uptobox
Télécharger

Uplea
Télécharger

1fichier
Télécharger

Uploaded
Télécharger

Rapidgator
Télécharger

TurboBit
Télécharger

[1 Lien PREMIUM : 1 x 19.7 GB]

Uptobox
Télécharger

1fichier
Télécharger

TurboBit
Télécharger

[4 Liens PREMIUM]

Uploaded
Télécharger

NFO :

Afficher / Masquer le texte 7af3c6114d778e49ba1486a6b11f7457″ class= »text_spoiler » style= »display:none; »>General
Format : Matroska
Format version : Version 2
File size : 19.7 GiB
Duration : 3h 51mn
Overall bit rate : 12.2 Mbps
Encoded date : UTC 2011-04-22 08:51:35
Writing application : mkvmerge v4.7.0 (‘Just Like You Imagined’) built on Apr 21 2011 01:13:14
Writing library : libebml v1.2.0 + libmatroska v1.1.0

Video
ID : 1
Format : AVC
Format/Info : Advanced Video Codec
Format profile : [email protected]
Format settings, CABAC : Yes
Format settings, ReFrames : 4 frames
Muxing mode : Header stripping
Codec ID : V_MPEG4/ISO/AVC
Duration : 3h 51mn
Bit rate : 12.0 Mbps
Width : 1 920 pixels
Height : 1 080 pixels
Display aspect ratio : 16:9
Frame rate mode : Constant
Frame rate : 23.976 fps
Color space : YUV
Chroma subsampling : 4:2:0
Bit depth : 8 bits
Scan type : Progressive
Bits/(Pixel*Frame) : 0.241
Stream size : 19.0 GiB (96%)
Title : Les Dix Commandements 1956.MULi.BluRay 1080p.x264-DREAM
Writing library : x264 core 114 r1924 08d04a4
Encoding settings : cabac=1 / ref=4 / deblock=1:-3:-3 / analyse=0x3:0x113 / me=umh / subme=10 / psy=1 / psy_rd=1.00:0.00 / mixed_ref=1 / me_range=64 / chroma_me=1 / trellis=2 / 8x8dct=1 / cqm=0 / deadzone=21,11 / fast_pskip=0 / chroma_qp_offset=-2 / threads=12 / sliced_threads=0 / nr=0 / decimate=1 / interlaced=0 / constrained_intra=0 / bframes=5 / b_pyramid=2 / b_adapt=2 / b_bias=0 / direct=1 / weightb=1 / open_gop=0 / weightp=2 / keyint=250 / keyint_min=23 / scenecut=40 / intra_refresh=0 / rc_lookahead=40 / rc=2pass / mbtree=1 / bitrate=12000 / ratetol=1.0 / qcomp=0.60 / qpmin=0 / qpmax=69 / qpstep=4 / cplxblur=20.0 / qblur=0.5 / vbv_maxrate=50000 / vbv_bufsize=50000 / nal_hrd=none / ip_ratio=1.40 / aq=1:1.00
Language : French
Default : No
Forced : Yes

Audio
ID : 2
Format : AC-3
Format/Info : Audio Coding 3
Mode extension : CM (complete main)
Format settings, Endianness : Big
Muxing mode : Header stripping
Codec ID : A_AC3
Duration : 3h 51mn
Bit rate mode : Constant
Bit rate : 192 Kbps
Channel(s) : 2 channels
Channel positions : Front: L R
Sampling rate : 48.0 KHz
Bit depth : 16 bits
Compression mode : Lossy
Stream size : 318 MiB (2%)
Title : Dolby Digital Audio 2.0.192 kbps
Language : French
Default : Yes
Forced : Yes

Text
ID : 3
Format : VobSub
Muxing mode : zlib
Codec ID : S_VOBSUB
Codec ID/Info : The same subtitle format used on DVDs
Title : Sub Forcés
Language : French
Default : Yes
Forced : Yes

Jeux Gratuit
15354131_1854970838071206_1069261547_o.png