Telecharger Les Duellistes [DVDRiP] French

Qualité BLURAY 720p | MULTiLANGUES

Les Duellistes

Les Duellistes

Origine du film : Britannique
Réalisateur : Ridley Scott
Acteurs : Harvey Keitel, Keith Carradine, Albert Finney
Genre : Historique, Guerre
Durée : 1h35min
Date de sortie : 31 août 1977
Année de production : 1977
Titre Original : The Duellists
Distribué par : Solaris Distribution
Note presse : Les Duellistes 4,0/5
Note spectateurs : Les Duellistes

; »>3,7/5 (778)
Bande annonce :

eb2054c6f8454578c2cce4166d127b4b

19145519″>Cliquez-ici pour voir la bande annonce eb2054c6f8454578c2cce4166d127b4b »> 19145519

eb2054c6f8454578c2cce4166d127b4b

Les Duellistes

Deux lieutenants de l’armée napoléonienne, d’Hubert et Feraud, vont poursuivre une querelle pendant quinze ans a travers toute l’Europe et se provoquer régulièrement en duel.
104421″ style= »display:inline; »>

Les Duellistes

Format : MKV
Découpé avec : Winrar

Les Duellistes

Les.Duellistes.1977.Multi.720p.BluRay.x264-NOTAG

(6994 Mo)

[Liens Interchangeables entre hébergeurs: 6x 1000 Mo + 1x 994 Mo]

Uptobox
Télécharger

Uplea
Télécharger

1fichier
Télécharger

Uploaded
Télécharger

Rapidgator
Télécharger

TurboBit
Télécharger

[ Liens Premium ]

Uptobox
Télécharger

Uplea
Télécharger

1fichier
Télécharger

Uploaded
Télécharger

TurboBit
Télécharger

NFO :

Afficher / Masquer le texte 0476eee80f59458c7681fbdeaabe990e » class= »text_spoiler » style= »display:none; »>Les.Duellistes.1977.Multi.720p.BluRay.x264-NOTAG.zone-telechargement.com.mkv
Format : Matroska
Format version : Version 4 / Version 2
File size : 6.83 GiB
Duration : 1h 40mn
Overall bit rate : 9 726 Kbps
Movie name : The Duellists (1977)
Encoded date : UTC 2015-02-01 09:47:35
Writing application : mkvmerge v6.8.0 (‘Theme for Great Cities’) 32bit built on Mar 2 2014 21:27:07
Writing library : libebml v1.3.0 + libmatroska v1.4.1

Video
ID : 1
Format : AVC
Format/Info : Advanced Video Codec
Format profile : [email protected]
Format settings, CABAC : Yes
Format settings, ReFrames : 9 frames
Codec ID : V_MPEG4/ISO/AVC
Duration : 1h 40mn
Bit rate : 7 770 Kbps
Width : 1 280 pixels
Height : 720 pixels
Display aspect ratio : 16:9
Frame rate mode : Constant
Frame rate : 23.976 fps
Color space : YUV
Chroma subsampling : 4:2:0
Bit depth : 8 bits
Scan type : Progressive
Bits/(Pixel*Frame) : 0.352
Stream size : 5.32 GiB (78%)
Writing library : x264 core 129 r2230 1cffe9f
Encoding settings : cabac=1 / ref=9 / deblock=1:-2:-2 / analyse=0x3:0x133 / me=umh / subme=10 / psy=1 / psy_rd=1.00:0.05 / mixed_ref=1 / me_range=32 / chroma_me=1 / trellis=2 / 8x8dct=1 / cqm=0 / deadzone=21,11 / fast_pskip=0 / chroma_qp_offset=-3 / threads=6 / lookahead_threads=1 / sliced_threads=0 / nr=0 / decimate=1 / interlaced=0 / bluray_compat=0 / constrained_intra=0 / bframes=9 / b_pyramid=2 / b_adapt=2 / b_bias=0 / direct=3 / weightb=1 / open_gop=0 / weightp=2 / keyint=240 / keyint_min=24 / scenecut=40 / intra_refresh=0 / rc_lookahead=60 / rc=2pass / mbtree=0 / bitrate=7770 / ratetol=1.0 / qcomp=0.60 / qpmin=0 / qpmax=56 / qpstep=4 / cplxblur=20.0 / qblur=0.5 / vbv_maxrate=50000 / vbv_bufsize=50000 / nal_hrd=none / ip_ratio=1.30 / pb_ratio=1.20 / aq=1:0.90
Language : English
Default : Yes
Forced : No

Audio #1
ID : 2
Format : AC-3
Format/Info : Audio Coding 3
Mode extension : CM (complete main)
Format settings, Endianness : Big
Codec ID : A_AC3
Duration : 1h 40mn
Bit rate mode : Constant
Bit rate : 448 Kbps
Channel(s) : 2 channels
Channel positions : Front: L R
Sampling rate : 48.0 KHz
Compression mode : Lossy
Delay relative to video : 24ms
Stream size : 322 MiB (5%)
Title : French
Language : French
Default : Yes
Forced : No

Audio #2
ID : 3
Format : DTS
Format/Info : Digital Theater Systems
Mode : 16
Format settings, Endianness : Big
Codec ID : A_DTS
Duration : 1h 40mn
Bit rate mode : Constant
Bit rate : 1 509 Kbps
Channel(s) : 6 channels
Channel positions : Front: L C R, Side: L R, LFE
Sampling rate : 48.0 KHz
Bit depth : 24 bits
Compression mode : Lossy
Stream size : 1.06 GiB (16%)
Title : DTS 5.1ch 24bit 1510kbps – original
Language : English
Default : No
Forced : No

Text
ID : 4
Format : UTF-8
Codec ID : S_TEXT/UTF8
Codec ID/Info : UTF-8 Plain Text
Title : Français
Language : French
Default : Yes
Forced : No

Jeux Gratuit
15354131_1854970838071206_1069261547_o.png