Telecharger Les Gardiens de la Galaxie [BLURAY 720p] French

(TRUEFRENCH = Vraie voix française)

BLURAY 720p | MULTiLANGUES (Avec TRUEFRENCH) | DTS

Les Gardiens de la Galaxie

Les Gardiens de la Galaxie

Les Gardiens de la Galaxie

Origine du film : Américain, Britannique
Réalisateur : James Gunn (II)
Acteurs : Chris Pratt, Zoe Saldana, Dave Bautista
Genre : Science fiction, Action
Durée : 2h1min
Date de sortie : 13 août 2014
Année de production : 2014
Titre Original : Guardians Of The Galaxy
Distribué par : The Walt Disney Company France
Note presse : Les Gardiens de la Galaxie 3,8/5
Note spectateurs : Les Gardiens de la Galaxie 4,4/5 (9 897)
Bande annonce :

d3c006b20c1341988891ae08a9d4322f

19546177″>Cliquez-ici pour voir la bande annonce d3c006b20c1341988891ae08a9d4322f »> 19546177

d3c006b20c1341988891ae08a9d4322f

Les Gardiens de la Galaxie

Peter Quill est un aventurier traqué par tous les chasseurs de primes pour avoir volé un mystérieux globe convoité par le puissant Ronan, dont les agissements menacent l’univers tout entier. Lorsqu’il découvre le véritable pouvoir de ce globe et la menace qui pèse sur la galaxie, il conclut une alliance fragile avec quatre aliens disparates : Rocket, un raton laveur fin tireur, Groot, un humanoïde semblable à un arbre, l’énigmatique et mortelle Gamora, et Drax le Destructeur, qui ne rêve que de vengeance. En les ralliant à sa cause, il les convainc de livrer un ultime combat aussi désespéré soit-il pour sauver ce qui peut encore l’être …
64832″ style= »display:inline; »>

Les Gardiens de la Galaxie

Qualité : BLURAY 720p
Format : MKV
Langue : Français
Sous-titre : Français
Nombre de fichiers : 5 Fichiers
Taille des fichiers : 1000 Mo + 619 Mo

Les Gardiens de la Galaxie

Ps: Les liens sont interchangeables, prenez une partie de chaque hébergeur pour télécharger plusieurs fichiers en même temps.

La version TRUEFRENCH (VFF):

Guardians.Of.The.Galaxy.2014.MULTi.TRUEFRENCH.720p.BluRay.DTS.x264-RiV3R ( 5391 Mo)

Uptobox
Télécharger

Uplea
Télécharger

1fichier
Télécharger

Uploaded
Télécharger

Rapidgator
Télécharger

TurboBit
Télécharger

1 Lien Premium – 5.3 Go

Uptobox Premium
Télécharger

Uplea Premium
Télécharger

1fichier Premium
Télécharger

Uploaded Premium
Télécharger

TurboBit Premium
Télécharger

NFO :

Afficher / Masquer le texte efc48051ce138841caa03e2687b3ec8d » class= »text_spoiler » style= »display:none; »>Source : BluRay Region B
Audio : VFF DTS 5.1 @ 1509 Kbps + VO DTS 5.1 @ 1509 Kbps
Sous-titres : FR FORCES – FR COMPLETS – ENG FULL

General
Unique ID : 43371589602298548781818432468814627898 (0x20A11076F3E3D6EC2D9B2C9EF4EB843A)
Complete name : Guardians.Of.The.Galaxy.2014.MULTi.TRUEFRENCH.720p.BluRay.DTS.x264-RiV3R.mkv
Format : Matroska
Format version : Version 4 / Version 2
File size : 5.27 GiB
Duration : 2h 0mn
Overall bit rate : 6 237 Kbps
Encoded date : UTC 2014-11-20 11:46:12
Writing application : mkvmerge v7.3.0 (‘Nouages’) 64bit built on Oct 22 2014 17:24:26
Writing library : libebml v1.3.0 + libmatroska v1.4.1
DURATION : 02:00:51.211000000
NUMBER_OF_FRAMES : 679801
NUMBER_OF_BYTES : 1367760328
_STATISTICS_WRITING_APP : mkvmerge v7.3.0 (‘Nouages’) 64bit built on Oct 22 2014 17:24:26
_STATISTICS_WRITING_DATE_UTC : 2014-11-20 11:46:12
_STATISTICS_TAGS : BPS DURATION NUMBER_OF_FRAMES NUMBER_OF_BYTES

Video
ID : 1
Format : AVC
Format/Info : Advanced Video Codec
Format profile : [email protected]
Format settings, CABAC : Yes
Format settings, ReFrames : 12 frames
Codec ID : V_MPEG4/ISO/AVC
Duration : 2h 0mn
Bit rate : 3 095 Kbps
Width : 1 280 pixels
Height : 534 pixels
Display aspect ratio : 2.40:1
Frame rate mode : Constant
Frame rate : 23.976 fps
Color space : YUV
Chroma subsampling : 4:2:0
Bit depth : 8 bits
Scan type : Progressive
Bits/(Pixel*Frame) : 0.189
Stream size : 2.61 GiB (50%)
Writing library : x264 core 142
Encoding settings : cabac=1 / ref=12 / deblock=1:-3:-3 / analyse=0x3:0x113 / me=umh / subme=11 / psy=1 / psy_rd=0.98:0.02 / mixed_ref=1 / me_range=64 / chroma_me=1 / trellis=2 / 8x8dct=1 / cqm=0 / deadzone=6,6 / fast_pskip=0 / chroma_qp_offset=-3 / threads=6 / lookahead_threads=1 / sliced_threads=0 / nr=0 / decimate=1 / interlaced=0 / bluray_compat=0 / constrained_intra=0 / bframes=8 / b_pyramid=2 / b_adapt=2 / b_bias=0 / direct=3 / weightb=1 / open_gop=0 / weightp=2 / keyint=240 / keyint_min=23 / scenecut=40 / intra_refresh=0 / rc_lookahead=240 / rc=crf / mbtree=1 / crf=16.8 / qcomp=0.75 / qpmin=0 / qpmax=69 / qpstep=4 / vbv_maxrate=50000 / vbv_bufsize=50000 / crf_max=0.0 / nal_hrd=none / filler=0 / ip_ratio=1.40 / aq=2:0.90
Language : English
Default : Yes
Forced : No
Color primaries : BT.709
Transfer characteristics : BT.709
Matrix coefficients : BT.709
DURATION : 02:00:51.120000000
NUMBER_OF_FRAMES : 173853
NUMBER_OF_BYTES : 2914802899
_STATISTICS_WRITING_APP : mkvmerge v7.3.0 (‘Nouages’) 64bit built on Oct 22 2014 17:24:26
_STATISTICS_WRITING_DATE_UTC : 2014-11-20 11:46:12
_STATISTICS_TAGS : BPS DURATION NUMBER_OF_FRAMES NUMBER_OF_BYTES

Audio #1
ID : 2
Format : DTS
Format/Info : Digital Theater Systems
Mode : 16
Format settings, Endianness : Big
Codec ID : A_DTS
Duration : 2h 0mn
Bit rate mode : Constant
Bit rate : 1 509 Kbps
Channel(s) : 6 channels
Channel positions : Front: L C R, Side: L R, LFE
Sampling rate : 48.0 KHz
Bit depth : 24 bits
Compression mode : Lossy
Stream size : 1.27 GiB (24%)
Title : VFF DTS 5.1 @ 1509 Kbps
Language : French
Default : Yes
Forced : No

Audio #2
ID : 3
Format : DTS
Format/Info : Digital Theater Systems
Mode : 16
Format settings, Endianness : Big
Codec ID : A_DTS
Duration : 2h 0mn
Bit rate mode : Constant
Bit rate : 1 509 Kbps
Channel(s) : 6 channels
Channel positions : Front: L C R, Side: L R, LFE
Sampling rate : 48.0 KHz
Bit depth : 24 bits
Compression mode : Lossy
Stream size : 1.27 GiB (24%)
Title : VO DTS 5.1 @ 1509 Kbps
Language : English
Default : No
Forced : No

Text #1
ID : 4
Format : UTF-8
Codec ID : S_TEXT/UTF8
Codec ID/Info : UTF-8 Plain Text
Title : ST FR Forces
Language : French
Default : Yes
Forced : Yes

Text #2
ID : 5
Format : UTF-8
Codec ID : S_TEXT/UTF8
Codec ID/Info : UTF-8 Plain Text
Title : ST FR Complets
Language : French
Default : No
Forced : No

Text #3
ID : 6
Format : UTF-8
Codec ID : S_TEXT/UTF8
Codec ID/Info : UTF-8 Plain Text
Title : ST ENG Full
Language : English
Default : No
Forced : No

Menu
00:00:00.000 : en:Prologue
00:04:05.703 : en:Morag
00:11:21.806 : en:Ronan The Accuser
00:15:21.712 : en:A Man Of Honor
00:20:54.419 : en:The Kyln
00:27:11.212 : en:Crimes Against The Galaxy
00:33:58.828 : en:Escaping The Kyln
00:44:28.290 : en:Knowhere
00:50:53.008 : en:I Do Not Dance
00:55:17.564 : en:The Collector
00:59:45.206 : en:Facing Off With Ronan
01:06:06.921 : en:Something Incredibly Heroic
01:14:46.023 : en:12 Percent Of A Plan
01:22:20.644 : en:The Fleet Approaches
01:26:29.726 : en:Inside The Dark Aster
01:30:23.876 : en:Destroying Xandar
01:35:58.377 : en:Protecting The Guardians
01:40:46.749 : en:Guardians Of The Galaxy
01:47:35.365 : en:Guardians Pardoned
01:53:16.623 : en:End Credits
02:00:10.828 : en:End Tag
02:00:50.952 : en:02:00:50.952


La version FRENCH (VFQ):

Guardians.of.the.Galaxy.2014.FRENCH.720p.BluRay.x264-VENUM ( 4619 Mo)

Uptobox
Télécharger

Uplea
Télécharger

1fichier
Télécharger

Uploaded
Télécharger

Rapidgator
Télécharger

TurboBit
Télécharger

1 Lien Premium – 4.4 Go

Uptobox Premium
Télécharger

Uplea Premium
Télécharger

1fichier Premium
Télécharger

Uploaded Premium
Télécharger

TurboBit Premium
Télécharger

NFO :

Afficher / Masquer le texte ef79b1f008adf272412d951f8768ea61″ class= »text_spoiler » style= »display:none; »> # #
# Guardians.of.the.Galaxy.2014 #
# #
########################################################
# #
# Bitrate Video : 4959 Kbps >> Codec: x264 #
# #
# Bitrate Audio : 384 Kbps >> Format: AC3 #
# #
# Resolution : 1280 x 536 Sub : FR FORCED #
# #
# Source ……..: SPARKS/MARVEL #
########################################################
# #
# http://www.imdb.com/title/tt0804463/ #
# #
######[#]##[## INFOS ##]##[#]#######
#########################################################

Jeux Gratuit
15354131_1854970838071206_1069261547_o.png