Telecharger Les Guerriers de la nuit [DVDRiP] French

(TRUEFRENCH = Vraie voix française)

Qualité BDRiP mkv | MULTiLANGUES (Avec TRUEFRENCH)

Les Guerriers de la nuit

Les Guerriers de la nuit

Les Guerriers de la nuit

Origine du film : Américain
Réalisateur : Walter Hill
Acteurs : Dorsey Wright, Roger Hill, Michael Beck
Genre : Action, Thriller
Durée : 1h24min
Date de sortie : août 1980
Année de production : 1979
Titre Original : The Warriors
Distribué par : CIC
Note spectateurs : Les Guerriers de la nuit

; »>3,8/5 (789)
Bande annonce :

a61d1f5daec56c6797eb2da14b5b4f06

19427197″>Cliquez-ici pour voir la bande annonce a61d1f5daec56c6797eb2da14b5b4f06″> 19427197

a61d1f5daec56c6797eb2da14b5b4f06

Les Guerriers de la nuit

A New York, où une centaine de gangs se partagent les rues, les combats font rage. La bande la plus puissante, les Gramercy Riffs dirigés par Cyrus, désirent unifier les forces et convoquent tous les gangs à un rassemblement pacifique. Mais la réunion dérape et finit dans le sang : Cyrus est assassiné.Ce meurtre, attribué par erreur aux Warriors, déclenche sur eux la vengeance de tous les autres. La lutte pour la survie commence, le long du trajet de 40 kilomètres qui les relie à leur quartier général…
101628″ style= »display:inline; »>

Les Guerriers de la nuit

Format : MKV

Les Guerriers de la nuit

Les Guerriers de la nuit 1979 MULTI.BRRip.x264.AC3-HuSh

(1370 Mo)

Uptobox
Télécharger

Uploaded
Télécharger

TurboBit
Télécharger

Rapidgator
Télécharger

Uplea
Télécharger

1fichier
Télécharger

NFO :

Afficher / Masquer le texte 75f6bec76fd88b341c846e6942d8f9bf » class= »text_spoiler » style= »display:none; »>■General

Unique ID : 193423005804483967399968043459812830809 (0x9183EA773120E02B9143B89C4B84AE59)

Complete name : G:TorrentLes.Guerriers.de.la.Nuit.1979.MULTI.BRRip.x264.AC3-HuShLes.Guerriers.de.la.Nuit.1979.MULTI.BRRip.x264.AC3-HuSh.mkv

Format : Matroska

Format version : Version 2

File size : 1.37 GiB

Duration : 1h 33mn

Overall bit rate mode : Variable

Overall bit rate : 2 084 Kbps

Movie name : Les.Guerriers.de.la.Nuit.1979.MULTI.BRRip.x264.AC3-HuSh

Encoded date : UTC 2015-01-31 10:55:44

Writing application : mkvmerge v3.2.0 (‘Beginnings’) built on Feb 12 2010 16:46:17

Writing library : libebml v0.7.9 + libmatroska v0.8.1

Video

ID : 1

Format : AVC

Format/Info : Advanced Video Codec

Format profile : [email protected]

Format settings, CABAC : Yes

Format settings, ReFrames : 8 frames

Codec ID : V_MPEG4/ISO/AVC

Duration : 1h 33mn

Bit rate mode : Variable

Bit rate : 1 698 Kbps

Maximum bit rate : 17.5 Mbps

Width : 720 pixels

Height : 400 pixels

Display aspect ratio : 16:9

Frame rate mode : Constant

Frame rate : 23.976 fps

Color space : YUV

Chroma subsampling : 4:2:0

Bit depth : 8 bits

Scan type : Progressive

Bits/(Pixel*Frame) : 0.246

Stream size : 1.09 GiB (80%)

Writing library : x264 core 144 r2525

Encoding settings : cabac=1 / ref=8 / deblock=1:-1:-1 / analyse=0x3:0x133 / me=umh / subme=9 / psy=1 / psy_rd=1.00:0.00 / mixed_ref=1 / me_range=32 / chroma_me=1 / trellis=2 / 8x8dct=1 / cqm=0 / deadzone=21,11 / fast_pskip=0 / chroma_qp_offset=-2 / threads=6 / lookahead_threads=1 / sliced_threads=0 / nr=0 / decimate=1 / interlaced=0 / bluray_compat=0 / constrained_intra=0 / bframes=3 / b_pyramid=2 / b_adapt=2 / b_bias=0 / direct=3 / weightb=1 / open_gop=1 / weightp=2 / keyint=230 / keyint_min=23 / scenecut=40 / intra_refresh=0 / rc_lookahead=60 / rc=2pass / mbtree=1 / bitrate=1698 / ratetol=1.0 / qcomp=0.60 / qpmin=10 / qpmax=69 / qpstep=4 / cplxblur=20.0 / qblur=0.5 / vbv_maxrate=17500 / vbv_bufsize=17500 / nal_hrd=vbr / filler=0 / ip_ratio=1.40 / aq=1:1.00

Language : English

Default : Yes

Forced : No

Audio #1

ID : 2

Format : AC-3

Format/Info : Audio Coding 3

Mode extension : CM (complete main)

Format settings, Endianness : Big

Codec ID : A_AC3

Duration : 1h 33mn

Bit rate mode : Constant

Bit rate : 192 Kbps

Channel(s) : 2 channels

Channel positions : Front: L R

Sampling rate : 48.0 KHz

Compression mode : Lossy

Stream size : 129 MiB (9%)

Language : French

Default : Yes

Forced : No

Audio #2

ID : 3

Format : AC-3

Format/Info : Audio Coding 3

Mode extension : CM (complete main)

Format settings, Endianness : Big

Codec ID : A_AC3

Duration : 1h 33mn

Bit rate mode : Constant

Bit rate : 192 Kbps

Channel(s) : 2 channels

Channel positions : Front: L R

Sampling rate : 48.0 KHz

Compression mode : Lossy

Stream size : 129 MiB (9%)

Language : English

Default : No

Forced : No

Text #1

ID : 4

Format : UTF-8

Codec ID : S_TEXT/UTF8

Codec ID/Info : UTF-8 Plain Text

Title : SUBFORCED

Language : French

Default : Yes

Forced : Yes

Text #2

ID : 5

Format : UTF-8

Codec ID : S_TEXT/UTF8

Codec ID/Info : UTF-8 Plain Text

Language : French

Default : No

Forced : No

Jeux Gratuit
15354131_1854970838071206_1069261547_o.png