Télécharger Les Minions Blu-Ray 3D

(TRUEFRENCH = Vraie voix française)

Qualité BLURAY 3D SBS | TRUEFRENCH

Les Minions

Les Minions

Origine du film : Américain
Réalisateur : Pierre Coffin
Acteurs : Sandra Bullock, Jon Hamm, Michael Keaton
Genre : Animation, Famille
Durée : 1h31min
Date de sortie : 8 juillet 2015
Année de production : 2015
Titre Original : The Minions
Distribué par : Universal Pictures International France
Note presse : Les Minions 3,7/5
Note spectateurs : Les Minions 3,4/5 (5 398)
Bande annonce :

2aa0db53490431ba9db930da823352fa

19553459″>Cliquez-ici pour voir la bande annonce 2aa0db53490431ba9db930da823352fa »> 19553459

2aa0db53490431ba9db930da823352fa

Les Minions

A l’origine de simples organismes monocellulaires de couleur jaune, les Minions ont évolué au cours des âges au service de maîtres plus abjectes les uns que les autres. Les disparitions répétitives de ceux-ci, des tyrannosaures à Napoléon, ont plongé les Minions dans une profonde dépression. Mais l’un d’eux, prénommé Kevin, a une idée. Flanqué de Stuart, l’adolescent rebelle et de l’adorable petit Bob, Kevin part à la recherche d’un nouveau patron malfaisant pour guider les siens. Nos trois Minions se lancent dans un palpitant voyage qui va les conduire à leur nouveau maître : Scarlet Overkill, la première superméchante de l’histoire. De l’Antarctique au New York des années 60, nos trois compères arrivent finalement à Londres, où ils vont devoir faire face à la plus terrible menace de leur existence : l’annihilation de leur espèce.
102169″ style= »display:inline; »>

Les Minions

Format : MKV

Les Minions

Minions.2015.3D.1080p.BluRay.x264-SPRiNTER.FrOnly

(4350 Mo)

[Liens Interchangeables entre hébergeurs: 4x 1000 Mo + 1x 350 Mo]

Uptobox
Télécharger

Uplea
Télécharger

1fichier
Télécharger

Uploaded
Télécharger

Rapidgator
Télécharger

TurboBit
Télécharger

1 Lien Premium – 4.2 Go

Uptobox Premium
Télécharger

Uplea Premium
Télécharger

1fichier Premium
Télécharger

Uploaded Premium
Télécharger

TurboBit Premium
Télécharger

NFO :

Afficher / Masquer le texte a4ccac39ccae934c1179bd8f4d512cef » class= »text_spoiler » style= »display:none; »>General
Unique ID : 265367786206465021586565454072780645886 (0xC7A3FA00B1789FEC9BAB6EB6C7EB65FE)
Complete name : Minions.2015.3D.1080p.BluRay.x264-SPRiNTER.FrOnly
Format : Matroska
Format version : Version 4 / Version 2
File size : 4.25 GiB
Duration : 1h 30mn
Overall bit rate : 6 687 Kbps
Encoded date : UTC 2015-10-24 09:56:12
Writing application : mkvmerge v7.6.0 (‘Garden of Dreams’) 64bit built on Feb 8 2015 15:43:43
Writing library : libebml v1.3.1 + libmatroska v1.4.2
DURATION : 01:30:53.056000000
NUMBER_OF_FRAMES : 170408
NUMBER_OF_BYTES : 305371136
_STATISTICS_WRITING_APP : mkvmerge v7.6.0 (‘Garden of Dreams’) 64bit built on Feb 8 2015 15:43:43
_STATISTICS_WRITING_DATE_UT : 2015-10-24 09:56:12
_STATISTICS_TAGS : BPS DURATION NUMBER_OF_FRAMES NUMBER_OF_BYTES

Video
ID : 1
Format : AVC
Format/Info : Advanced Video Codec
Format profile : [email protected]
Format settings, CABAC : Yes
Format settings, ReFrames : 4 frames
Codec ID : V_MPEG4/ISO/AVC
Duration : 1h 30mn
Bit rate : 6 237 Kbps
Width : 1 920 pixels
Height : 1 040 pixels
Display aspect ratio : 1.85:1
Frame rate mode : Constant
Frame rate : 23.976 fps
Color space : YUV
Chroma subsampling : 4:2:0
Bit depth : 8 bits
Scan type : Progressive
Bits/(Pixel*Frame) : 0.130
Stream size : 3.88 GiB (91%)
Writing library : x264 core 148 r2638 7599210
Encoding settings : cabac=1 / ref=4 / deblock=1:0:0 / analyse=0x3:0x133 / me=umh / subme=7 / psy=1 / psy_rd=1.00:0.00 / mixed_ref=1 / me_range=16 / chroma_me=1 / trellis=1 / 8x8dct=1 / cqm=0 / deadzone=21,11 / fast_pskip=0 / chroma_qp_offset=-2 / threads=18 / lookahead_threads=3 / sliced_threads=0 / nr=0 / decimate=1 / interlaced=0 / bluray_compat=0 / constrained_intra=0 / bframes=3 / b_pyramid=2 / b_adapt=1 / b_bias=0 / direct=1 / weightb=1 / open_gop=0 / weightp=2 / keyint=250 / keyint_min=23 / scenecut=40 / intra_refresh=0 / rc_lookahead=40 / rc=2pass / mbtree=1 / bitrate=6237 / ratetol=1.0 / qcomp=0.60 / qpmin=0 / qpmax=69 / qpstep=4 / cplxblur=20.0 / qblur=0.5 / ip_ratio=1.40 / aq=1:1.00
Language : English
Default : Yes
Forced : No
_STATISTICS_WRITING_APP : mkvmerge v7.6.0 (‘Garden of Dreams’) 64bit built on Feb 8 2015 15:43:43
_STATISTICS_WRITING_DATE_UT : 2015-10-24 09:56:12
_STATISTICS_TAGS : BPS DURATION NUMBER_OF_FRAMES NUMBER_OF_BYTES
DURATION : 01:30:57.953000000
NUMBER_OF_FRAMES : 130860
NUMBER_OF_BYTES : 4255309410

Audio
ID : 2
Format : AC-3
Format/Info : Audio Coding 3
Mode extension : CM (complete main)
Format settings, Endianness : Big
Codec ID : A_AC3
Duration : 1h 30mn
Bit rate mode : Constant
Bit rate : 448 Kbps
Channel(s) : 6 channels
Channel positions : Front: L C R, Side: L R, LFE
Sampling rate : 48.0 KHz
Compression mode : Lossy
Stream size : 291 MiB (7%)
Language : French
Default : Yes
Forced : Yes

Menu
00:00:00.000 : en:00:00:00.000
00:05:39.839 : en:00:05:39.839
00:11:28.938 : en:00:11:28.938
00:16:55.139 : en:00:16:55.139
00:22:28.430 : en:00:22:28.430
00:26:59.034 : en:00:26:59.034
00:32:54.639 : en:00:32:54.639
00:37:28.872 : en:00:37:28.872
00:40:58.831 : en:00:40:58.831
00:45:29.310 : en:00:45:29.310
00:49:24.086 : en:00:49:24.086
00:53:43.053 : en:00:53:43.053
00:57:04.921 : en:00:57:04.921
01:01:36.943 : en:01:01:36.943
01:05:54.701 : en:01:05:54.701
01:07:55.238 : en:01:07:55.238
01:11:19.150 : en:01:11:19.150
01:15:32.653 : en:01:15:32.653
01:21:12.826 : en:01:21:12.826
01:28:24.758 : en:01:28:24.758

Jeux Gratuit
15354131_1854970838071206_1069261547_o.png