Telecharger Les Minions [BLURAY 720p] French

(TRUEFRENCH = Vraie voix française)

Qualité BLURAY 720p | TRUEFRENCH

Origine du film : Américain
Réalisateur : Pierre Coffin
Acteurs : Sandra Bullock, Jon Hamm, Michael Keaton
Genre : Animation, Famille
Durée : 1h31min
Date de sortie : 8 juillet 2015
Année de production : 2015
Titre Original : The Minions
Distribué par : Universal Pictures International France
Note presse : 3,7/5
Note spectateurs :

; »>3,4/5 (5 398)
Bande annonce :

dffe2d1c7d1aff41ccda104194d54b0e

19553459″>Cliquez-ici pour voir la bande annonce dffe2d1c7d1aff41ccda104194d54b0e »> 19553459

dffe2d1c7d1aff41ccda104194d54b0e

A l’origine de simples organismes monocellulaires de couleur jaune, les Minions ont évolué au cours des âges au service de maîtres plus abjectes les uns que les autres. Les disparitions répétitives de ceux-ci, des tyrannosaures à Napoléon, ont plongé les Minions dans une profonde dépression. Mais l’un d’eux, prénommé Kevin, a une idée. Flanqué de Stuart, l’adolescent rebelle et de l’adorable petit Bob, Kevin part à la recherche d’un nouveau patron malfaisant pour guider les siens. Nos trois Minions se lancent dans un palpitant voyage qui va les conduire à leur nouveau maître : Scarlet Overkill, la première superméchante de l’histoire. De l’Antarctique au New York des années 60, nos trois compères arrivent finalement à Londres, où ils vont devoir faire face à la plus terrible menace de leur existence : l’annihilation de leur espèce.
102095″ style= »display:inline; »>

Format : MKV

Minions.2015.FRENCH.720p.BluRay.x264-Goatlove

(2235 Mo)

[Liens Interchangeables entre hébergeurs: 2x 1000 Mo + 1x 235 Mo]

Uptobox
Partie 1
Partie 2
Partie 3

Uplea
Partie 1
Partie 2
Partie 3

1fichier
Partie 1
Partie 2
Partie 3

Uploaded
Partie 1
Partie 2
Partie 3

Rapidgator
Partie 1
Partie 2
Partie 3

TurboBit
Partie 1
Partie 2
Partie 3

1 Lien Premium – 2.2 Go

Uptobox Premium
Télécharger

Uplea Premium
Télécharger

1fichier Premium
Télécharger

Uploaded Premium
Télécharger

TurboBit Premium
Télécharger

NFO :

Afficher / Masquer le texte c18c4bebb9b4c23f2774d71c847f8d89″ class= »text_spoiler » style= »display:none; »>General
Complete name : minions.2015.french.720p.bluray.x264-goatlove.mkv
Format : Matroska
Format version : Version 2
File size : 2.18 GiB
Duration : 1h 30mn
Overall bit rate : 3 436 Kbps
Writing application : mkvmerge v6.6.0 (‘The Edge Of The In Between’) built on Dec 1 2013 17:55:00
Writing library : libebml v1.3.0 + libmatroska v1.4.1

Video
ID : 1
Format : AVC
Format/Info : Advanced Video Codec
Format profile : [email protected]
Format settings, CABAC : Yes
Format settings, ReFrames : 5 frames
Codec ID : V_MPEG4/ISO/AVC
Duration : 1h 30mn
Bit rate : 2 794 Kbps
Width : 1 280 pixels
Height : 688 pixels
Display aspect ratio : 1.85:1
Frame rate mode : Constant
Frame rate : 23.976 fps
Color space : YUV
Chroma subsampling : 4:2:0
Bit depth : 8 bits
Scan type : Progressive
Bits/(Pixel*Frame) : 0.132
Stream size : 1.73 GiB (79%)
Writing library : x264 core 148 r2638 7599210
Encoding settings : cabac=1 / ref=5 / deblock=1:0:0 / analyse=0x3:0x113 / me=umh / subme=8 / psy=1 / psy_rd=1.00:0.00 / mixed_ref=1 / me_range=16 / chroma_me=1 / trellis=1 / 8x8dct=1 / cqm=0 / deadzone=21,11 / fast_pskip=1 / chroma_qp_offset=-2 / threads=12 / lookahead_threads=2 / sliced_threads=0 / nr=0 / decimate=1 / interlaced=0 / bluray_compat=0 / constrained_intra=0 / bframes=3 / b_pyramid=2 / b_adapt=2 / b_bias=0 / direct=3 / weightb=1 / open_gop=0 / weightp=2 / keyint=250 / keyint_min=23 / scenecut=40 / intra_refresh=0 / rc_lookahead=50 / rc=2pass / mbtree=1 / bitrate=2794 / ratetol=1.0 / qcomp=0.60 / qpmin=0 / qpmax=69 / qpstep=4 / cplxblur=20.0 / qblur=0.5 / ip_ratio=1.40 / aq=1:1.00
Language : English
Default : Yes
Forced : No

Audio
ID : 2
Format : AC-3
Format/Info : Audio Coding 3
Mode extension : CM (complete main)
Format settings, Endianness : Big
Codec ID : A_AC3
Duration : 1h 30mn
Bit rate mode : Constant
Bit rate : 640 Kbps
Channel(s) : 6 channels
Channel positions : Front: L C R, Side: L R, LFE
Sampling rate : 48.0 KHz
Bit depth : 16 bits
Compression mode : Lossy
Stream size : 416 MiB (19%)
Title : French
Language : French
Default : Yes
Forced : No

Text
ID : 3
Format : UTF-8
Codec ID : S_TEXT/UTF8
Codec ID/Info : UTF-8 Plain Text
Title : French Forced
Language : French
Default : Yes
Forced : Yes

Menu
00:00:00.000 : en:00:00:00.000
00:05:39.839 : en:00:05:39.839
00:11:28.938 : en:00:11:28.938
00:16:55.139 : en:00:16:55.139
00:22:28.430 : en:00:22:28.430
00:26:59.034 : en:00:26:59.034
00:32:54.639 : en:00:32:54.639
00:37:28.872 : en:00:37:28.872
00:40:58.831 : en:00:40:58.831
00:45:29.310 : en:00:45:29.310
00:49:24.086 : en:00:49:24.086
00:53:43.053 : en:00:53:43.053
00:57:04.921 : en:00:57:04.921
01:01:36.943 : en:01:01:36.943
01:05:54.701 : en:01:05:54.701
01:07:55.238 : en:01:07:55.238
01:11:19.150 : en:01:11:19.150
01:15:32.653 : en:01:15:32.653
01:21:12.826 : en:01:21:12.826
01:28:24.758 : en:01:28:24.758