Télécharger Les Mystères de Paris

Qualité BLURAY 720p | FRENCH | son DTS

Les Mystères de Paris

Les Mystères de Paris

Origine du film : Français
Réalisateur : André Hunebelle
Acteurs : Jean Marais, Dany Robin, Jill Haworth
Genre : Aventure, Historique, Drame
Durée : 1h50min
Date de sortie : 4 octobre 1962
Année de production : 1962
Note spectateurs : Les Mystères de Paris 3,5/5 (46)

Les Mystères de Paris

Rodolphe, après avoir causé un accident qui a provoqué la mort d’un ouvrier, part rechercher sa fille, Marie, dans les bas-fonds de Paris.
104067″ style= »display:inline; »>

Les Mystères de Paris

Format : MKV
Découpé avec : Winrar

Les Mystères de Paris

Les.Mysteres.De.Paris.1962.FRENCH.720p.BluRay.DTS.x264-CRiSC

(4691 Mo)

[Liens Interchangeables entre hébergeurs: 4x 1000 Mo + 1x 691 Mo]

Uptobox
Télécharger

Uplea
Télécharger

1fichier
Télécharger

Uploaded
Télécharger

Rapidgator
Télécharger

TurboBit
Télécharger

[ Liens Premium ]

Uptobox
Télécharger

Uplea
Télécharger

1fichier
Télécharger

Uploaded
Télécharger

TurboBit
Télécharger

NFO :

Afficher / Masquer le texte 0083ef2bdfe6abcd43366f41bb25321e » class= »text_spoiler » style= »display:none; »>Les Mysteres De Paris 1962 FRENCH 720p BluRay DTS x264-CRiSC.zone-telechargement.com.mkv
Format : Matroska
Format version : Version 2
File size : 4.58 GiB
Duration : 1h 45mn
Overall bit rate : 6 190 Kbps
Encoded date : UTC 2014-03-07 17:00:27
Writing application : mkvmerge v5.7.0 (‘The Whirlwind’) built on Jul 8 2012 20:08:51
Writing library : libebml v1.2.3 + libmatroska v1.3.0

Video
ID : 1
Format : AVC
Format/Info : Advanced Video Codec
Format profile : [email protected]
Format settings, CABAC : Yes
Format settings, ReFrames : 12 frames
Codec ID : V_MPEG4/ISO/AVC
Duration : 1h 45mn
Bit rate : 5 420 Kbps
Width : 1 280 pixels
Height : 544 pixels
Display aspect ratio : 2.35:1
Frame rate mode : Constant
Frame rate : 24.000 fps
Color space : YUV
Chroma subsampling : 4:2:0
Bit depth : 8 bits
Scan type : Progressive
Bits/(Pixel*Frame) : 0.324
Stream size : 3.92 GiB (86%)
Writing library : x264 core 125 r2200 999b753
Encoding settings : cabac=1 / ref=12 / deblock=1:-3:-3 / analyse=0x3:0x133 / me=umh / subme=11 / psy=1 / psy_rd=1.05:0.00 / mixed_ref=1 / me_range=48 / chroma_me=1 / trellis=2 / 8x8dct=1 / cqm=0 / deadzone=21,11 / fast_pskip=0 / chroma_qp_offset=-2 / threads=12 / lookahead_threads=2 / sliced_threads=0 / nr=0 / decimate=1 / interlaced=0 / bluray_compat=0 / constrained_intra=0 / bframes=9 / b_pyramid=2 / b_adapt=2 / b_bias=0 / direct=3 / weightb=1 / open_gop=0 / weightp=2 / keyint=250 / keyint_min=23 / scenecut=40 / intra_refresh=0 / rc_lookahead=40 / rc=2pass / mbtree=0 / bitrate=5420 / ratetol=1.0 / qcomp=0.60 / qpmin=0 / qpmax=69 / qpstep=4 / cplxblur=20.0 / qblur=0.5 / vbv_maxrate=62500 / vbv_bufsize=78125 / nal_hrd=none / ip_ratio=1.40 / pb_ratio=1.30 / aq=1:0.80
Language : French
Default : Yes
Forced : No

Audio
ID : 2
Format : DTS
Format/Info : Digital Theater Systems
Mode : 16
Format settings, Endianness : Big
Codec ID : A_DTS
Duration : 1h 45mn
Bit rate mode : Constant
Bit rate : 768 Kbps
Channel count : 1 channel
Channel positions : Front: C
Sampling rate : 48.0 KHz
Bit depth : 16 bits
Compression mode : Lossy
Stream size : 582 MiB (12%)
Language : French
Default : Yes
Forced : No