Telecharger Les Nouveaux Héros [BLURAY 720p] French

(TRUEFRENCH = Vraie voix française)

Qualité BLURAY 720p | TRUEFRENCH | son DTS

Les Nouveaux Héros

Les Nouveaux Héros

Origine du film : Américain
Réalisateur : Don Hall
Acteurs : Scott Adsit, Ryan Potter, Daniel Henney
Genre : Animation, Aventure, Action, Comédie, Famille
Durée : 1h42min
Date de sortie : 11 février 2015
Année de production : 2014
Titre Original : Big Hero 6
Distribué par : The Walt Disney Company France
Note presse : Les Nouveaux Héros 3,8/5
Note spectateurs : Les Nouveaux Héros

; »>4,3/5 (5 311)
Bande annonce :

55a2d71dc0039bd86c1d92abe04bff13

19549214″>Cliquez-ici pour voir la bande annonce 55a2d71dc0039bd86c1d92abe04bff13″> 19549214

55a2d71dc0039bd86c1d92abe04bff13

Les Nouveaux Héros

Un petit génie de la robotique nommé Hiro Hamada découvre qu’un complot criminel menace de détruire la ville de San Fransokyo. Avec l’aide de son plus proche ami, Baymax le robot infirmier, et de ses compagnons qu’il va transformer en une bande de superhéros high-tech, Hiro va tout faire pour sauver la ville et sa population de l’infâme Yokai…
87569″ style= »display:inline; »>

Les Nouveaux Héros

Format : MKV
Découpé avec : Winrar
Sous-titres : Forcé pour les passages en langue étrangère.

Les Nouveaux Héros

Big.Hero.6.2014.TRUEFRENCH.720p.BluRay.x264-Goatlove

(3357 Mo)

[Liens Interchangeables entre hébergeurs: 3x 1000 Mo + 1x 357 Mo]

Uptobox
Télécharger

Uplea
Télécharger

1fichier
Télécharger

Uploaded
Télécharger

Rapidgator
Télécharger

TurboBit
Télécharger

[Liens PREMIUM]

Uptobox
Télécharger

Uplea
Télécharger

1fichier
Télécharger

Uploaded
Télécharger

Rapidgator
Télécharger

TurboBit
Télécharger

NFO :

Afficher / Masquer le texte d16ca5af26e0dfa820c04f6c65631cb9″ class= »text_spoiler » style= »display:none; »>General
Complete name : big.hero.6.2014.truefrench.720p.bluray.x264-goatlove.mkv
Format : Matroska
Format version : Version 2
File size : 3.28 GiB
Duration : 1h 41mn
Overall bit rate : 4 607 Kbps
Writing application : mkvmerge v6.6.0 (‘The Edge Of The In Between’) built on Dec 1 2013 17:55:00
Writing library : libebml v1.3.0 + libmatroska v1.4.1

Video
ID : 1
Format : AVC
Format/Info : Advanced Video Codec
Format profile : [email protected]
Format settings, CABAC : Yes
Format settings, ReFrames : 5 frames
Codec ID : V_MPEG4/ISO/AVC
Duration : 1h 41mn
Bit rate : 3 096 Kbps
Width : 1 280 pixels
Height : 536 pixels
Display aspect ratio : 2.40:1
Frame rate mode : Constant
Frame rate : 23.976 fps
Color space : YUV
Chroma subsampling : 4:2:0
Bit depth : 8 bits
Scan type : Progressive
Bits/(Pixel*Frame) : 0.188
Stream size : 2.14 GiB (65%)
Writing library : x264 core 146 r2538 121396c
Encoding settings : cabac=1 / ref=5 / deblock=1:0:0 / analyse=0x3:0x133 / me=umh / subme=8 / psy=1 / psy_rd=1.00:0.00 / mixed_ref=1 / me_range=16 / chroma_me=1 / trellis=1 / 8x8dct=1 / cqm=0 / deadzone=21,11 / fast_pskip=0 / chroma_qp_offset=-2 / threads=12 / lookahead_threads=2 / sliced_threads=0 / nr=0 / decimate=1 / interlaced=0 / bluray_compat=0 / constrained_intra=0 / bframes=3 / b_pyramid=2 / b_adapt=2 / b_bias=0 / direct=3 / weightb=1 / open_gop=0 / weightp=2 / keyint=250 / keyint_min=23 / scenecut=40 / intra_refresh=0 / rc_lookahead=50 / rc=2pass / mbtree=1 / bitrate=3096 / ratetol=1.0 / qcomp=0.60 / qpmin=0 / qpmax=69 / qpstep=4 / cplxblur=20.0 / qblur=0.5 / ip_ratio=1.40 / aq=1:1.00
Language : English
Default : Yes
Forced : No

Audio
ID : 2
Format : DTS
Format/Info : Digital Theater Systems
Mode : 16
Format settings, Endianness : Big
Codec ID : A_DTS
Duration : 1h 41mn
Bit rate mode : Constant
Bit rate : 1 509 Kbps
Channel(s) : 6 channels
Channel positions : Front: L C R, Side: L R, LFE
Sampling rate : 48.0 KHz
Bit depth : 24 bits
Compression mode : Lossy
Stream size : 1.07 GiB (33%)
Title : French
Language : French
Default : Yes
Forced : No

Text
ID : 3
Format : UTF-8
Codec ID : S_TEXT/UTF8
Codec ID/Info : UTF-8 Plain Text
Title : French Forced
Language : frf
Default : Yes
Forced : Yes

Menu
00:00:00.000 : en:00:00:00.000
00:07:15.685 : en:00:07:15.685
00:14:37.835 : en:00:14:37.835
00:21:49.183 : en:00:21:49.183
00:24:32.888 : en:00:24:32.888
00:29:34.731 : en:00:29:34.731
00:36:58.091 : en:00:36:58.091
00:44:18.322 : en:00:44:18.322
00:50:49.088 : en:00:50:49.088
00:54:33.020 : en:00:54:33.020
01:00:44.140 : en:01:00:44.140
01:07:12.612 : en:01:07:12.612
01:11:54.644 : en:01:11:54.644
01:16:26.665 : en:01:16:26.665
01:24:44.162 : en:01:24:44.162
01:31:52.757 : en:01:31:52.757

Jeux Gratuit
15354131_1854970838071206_1069261547_o.png