Telecharger Les nuits de la pleine lune [DVDRiP] French

Qualité BLURAY 1080p | FRENCH | son DTS

Les nuits de la pleine lune

Les nuits de la pleine lune

Origine du film : Français
Réalisateur : Eric Rohmer
Acteurs : Pascale Ogier, Tchéky Karyo, Fabrice Luchini
Genre : Drame, Romance
Durée : 1h42min
Date de sortie : 29 août 1984
Année de production : 1984
Note spectateurs : Les nuits de la pleine lune

; »>3,6/5 (175)
Bande annonce :

2e58c9096131226bced020585bf69003

19469572″>Cliquez-ici pour voir la bande annonce 2e58c9096131226bced020585bf69003″> 19469572

2e58c9096131226bced020585bf69003

Les nuits de la pleine lune

Louise joue dangereusement avec les sentiments de ceux qu’elle séduit et Rémi, son compagnon, est le premier à en souffrir. Elle sera prise à son propre jeu le jour où Rémi en découvrira la clé.
99021″ style= »display:inline; »>

Les nuits de la pleine lune

Format : MKV
Découpé avec : Winrar

Les nuits de la pleine lune

Les.Nuits.De.La.Pleine.Lune.1984.FRENCH.1080p.BluRay.x264-MELiTE

(6717 Mo)

[Liens Interchangeables entre hébergeurs: 6x 1000 Mo + 1x 717 Mo]

Uptobox
Télécharger

Uplea
Télécharger

1fichier
Télécharger

Uploaded
Télécharger

Rapidgator
Télécharger

TurboBit
Télécharger

[ Liens Premium ]

Uptobox
Télécharger

Uplea
Télécharger

1fichier
Télécharger

Uploaded
Télécharger

TurboBit
Télécharger

NFO :

Afficher / Masquer le texte 19c12459ebc112148fb6145f2f2c9086″ class= »text_spoiler » style= »display:none; »>Les.Nuits.De.La.Pleine.Lune.1984.FRENCH.1080p.BluRay.x264-MELiTE.zone-telechargement.com.mkv
Format : Matroska
Format version : Version 4 / Version 2
File size : 6.56 GiB
Duration : 1h 41mn
Overall bit rate : 9 271 Kbps
Encoded date : UTC 2014-10-06 14:16:05
Writing application : mkvmerge v6.5.0 (‘Isn’t she lovely’) built on Oct 20 2013 12:50:05
Writing library : libebml v1.3.0 + libmatroska v1.4.1

Video
ID : 1
Format : AVC
Format/Info : Advanced Video Codec
Format profile : [email protected]
Format settings, CABAC : Yes
Format settings, ReFrames : 4 frames
Codec ID : V_MPEG4/ISO/AVC
Duration : 1h 41mn
Bit rate : 8 502 Kbps
Width : 1 488 pixels
Height : 1 080 pixels
Display aspect ratio : 1.378
Frame rate mode : Constant
Frame rate : 24.000 fps
Color space : YUV
Chroma subsampling : 4:2:0
Bit depth : 8 bits
Scan type : Progressive
Bits/(Pixel*Frame) : 0.220
Stream size : 5.89 GiB (90%)
Writing library : x264 core 142 r2479 dd79a61
Encoding settings : cabac=1 / ref=4 / deblock=1:0:0 / analyse=0x3:0x113 / me=umh / subme=7 / psy=1 / psy_rd=1.00:0.00 / mixed_ref=1 / me_range=16 / chroma_me=1 / trellis=1 / 8x8dct=1 / cqm=0 / deadzone=21,11 / fast_pskip=0 / chroma_qp_offset=-2 / threads=12 / lookahead_threads=2 / sliced_threads=0 / nr=0 / decimate=1 / interlaced=0 / bluray_compat=0 / constrained_intra=0 / bframes=3 / b_pyramid=2 / b_adapt=1 / b_bias=0 / direct=1 / weightb=1 / open_gop=0 / weightp=2 / keyint=250 / keyint_min=23 / scenecut=40 / intra_refresh=0 / rc_lookahead=40 / rc=2pass / mbtree=1 / bitrate=8502 / ratetol=1.0 / qcomp=0.60 / qpmin=0 / qpmax=69 / qpstep=4 / cplxblur=20.0 / qblur=0.5 / ip_ratio=1.40 / aq=1:1.00
Language : English
Default : Yes
Forced : No

Audio
ID : 2
Format : DTS
Format/Info : Digital Theater Systems
Mode : 16
Format settings, Endianness : Big
Codec ID : A_DTS
Duration : 1h 41mn
Bit rate mode : Constant
Bit rate : 768 Kbps
Channel count : 1 channel
Channel positions : Front: C
Sampling rate : 48.0 KHz
Bit depth : 16 bits
Compression mode : Lossy
Stream size : 557 MiB (8%)
Language : French
Default : Yes
Forced : No

Jeux Gratuit
15354131_1854970838071206_1069261547_o.png