Télécharger Les Survivants French

Qualité DVDRiP | FRENCH

Les Survivants

Les Survivants

Les Survivants

Origine du film : Américain
Réalisateur : Frank Marshall
Acteurs : Ethan Hawke, Vincent Spano, Josh Hamilton
Genre : Aventure, Drame
Durée : 2h7min
Date de sortie : 21 avril 1993
Année de production : 1993
Titre Original : Alive
Note spectateurs : Les Survivants 3,5/5 (1 002)
Bande annonce :

5bf234ef4458d9197c5073d86d3a0e4a

19428286″>Cliquez-ici pour voir la bande annonce 5bf234ef4458d9197c5073d86d3a0e4a »> 19428286

5bf234ef4458d9197c5073d86d3a0e4a

Les Survivants

L'avion de l'équipe nationale uruguayenne de rugby s'écrase sur la Cordillère des Andes. Seule une vingtaine passagers en réchappe. Pour survivre dans ces conditions climatiques extrêmes, les rescapés sont contraints de recourir à l'anthropophagie.
59243″ style= »display:inline; »>

Les Survivants

Qualité : DVDRiP
Format : XviD
Langue : Français

Les Survivants

Les.Survivants.1993.FRENCH.DVDRiP.XViD.AC3-HuSh ( 1400 Mo)

Uptobox
Télécharger

Uplea
Télécharger

1fichier
Télécharger

Free
Télécharger

Uploaded
Télécharger

TurboBit
Télécharger

NFO :

Afficher / Masquer le texte 40f80cf369d3304152e3e72a70d4dc08″ class= »text_spoiler » style= »display:none; »>Format : AVI
Format/Info : Audio Video Interleave
File size : 1.36 GiB
Duration : 2h 1mn
Overall bit rate : 1 612 Kbps
Movie name : TOUT HUSH SUR team-hush.org
Writing application : FairUse Wizard – http://fairusewizard.com

Video
ID : 0
Format : MPEG-4 Visual
Format profile : Advanced [email protected]
Format settings, BVOP : 1
Format settings, QPel : No
Format settings, GMC : No warppoints
Format settings, Matrix : Default (MPEG)
Muxing mode : Packed bitstream
Codec ID : XVID
Codec ID/Hint : XviD
Duration : 2h 1mn
Bit rate : 1 378 Kbps
Width : 640 pixels
Height : 352 pixels
Display aspect ratio : 16:9
Frame rate : 25.000 fps
Color space : YUV
Chroma subsampling : 4:2:0
Bit depth : 8 bits
Scan type : Progressive
Compression mode : Lossy
Bits/(Pixel*Frame) : 0.245
Stream size : 1.17 GiB (86%)
Writing library : XviD 1.2.1 (UTC 2008-12-04)

Audio
ID : 1
Format : AC-3
Format/Info : Audio Coding 3
Format profile : Dolby Digital
Mode extension : CM (complete main)
Format settings, Endianness : Big
Codec ID : 2000
Duration : 2h 1mn
Bit rate mode : Constant
Bit rate : 224 Kbps
Channel(s) : 2 channels
Channel positions : Front: L R
Sampling rate : 48.0 KHz
Bit depth : 16 bits
Compression mode : Lossy
Stream size : 194 MiB (14%)
Alignment : Split accross interleaves
Interleave, duration : 40 ms (1.00 video frame)
Interleave, preload duration : 500 ms

Jeux Gratuit
15354131_1854970838071206_1069261547_o.png