Telecharger Les Vengeurs Ultimate 2 [BLURAY 720p] French

BLURAY 720p | TRUEFRENCH | DTS

Les Vengeurs Ultimate 2

Les Vengeurs Ultimate 2

Les Vengeurs Ultimate 2

Origine du film : Américain
Réalisateur : Will Meugniot, Dick Sebast
Acteurs : Justin Gross, Michael Massee, Marc Worden
Genre : Animation
Durée : 1h 13min
Année de production : 2006
Titre Original : Ultimate Avengers 2
Distribué par : Metropolitan FilmExport
Note presse : Les Vengeurs Ultimate 2 3,3/5
Note spectateurs : Les Vengeurs Ultimate 2 3,3/5 (28)

Les Vengeurs Ultimate 2

Le retour de l’équipe Ultimate Avengers avec Thor, Captain America, Iron Man, Nick Fury, Giant-Man, la Guêpe et Hulk. Cette fois ils vont rencontrer La Panthère noire. 17347″ style= »display:inline; »>

Les Vengeurs Ultimate 2

Qualité : BLURAY 720p
Format : MKV
Langue : Français
Découpé avec : Winrar
Nombre de fichiers : 4 Fichiers
Taille des fichiers : 999 Mo + 985 Mo
Taille totale : 3982 Mo

Les Vengeurs Ultimate 2

[Liens Interchangeables]

Ultimate.Avengers.2.TRUEFRENCH.720p.DTS.Bluray.X264-RLD (3,9 Go)

Uptobox
Télécharger

Uplea
Télécharger

1fichier
Télécharger

Uploaded
Télécharger

Rapidgator
Télécharger

TurboBit
Télécharger

[ 1 lien Premium – 3,9 Go ]

Uptobox
Télécharger

Uplea
Télécharger

1fichier
Télécharger

Uploaded
Télécharger

TurboBit
Télécharger

NFO :

Afficher / Masquer le texte c0a5371e9fc8a7b7be42fc750f25eebd » class= »text_spoiler » style= »display:none; »>General

Complete name : Ultimate.Avengers.2.TRUEFRENCH.720p.DTS.Bluray.X264-NONAME.mkv
Format : Matroska
File size : 3.89 GiB
Duration : 1h 13mn
Overall bit rate : 7 624 Kbps
Encoded date : UTC 2009-08-27 06:33:40
Writing application : mkvmerge v2.4.2 (‘Oh My God’) built on Jan 18 2009 17:30:28
Writing library : libebml v0.7.7 + libmatroska v0.8.1

Video
ID : 1
Format : AVC
Format/Info : Advanced Video Codec
Format profile : [email protected]
Format settings, CABAC : Yes
Format settings, ReFrames : 4 frames
Codec ID : V_MPEG4/ISO/AVC
Duration : 1h 13mn
Bit rate mode : Variable
Bit rate : 6 112 Kbps
Maximum bit rate : 25.0 Mbps
Width : 1 280 pixels
Height : 720 pixels
Display aspect ratio : 16:9
Frame rate : 23.976 fps
Color space : YUV
Chroma subsampling : 4:2:0
Bit depth : 8 bits
Scan type : Progressive
Bits/(Pixel*Frame) : 0.277
Stream size : 3.04 GiB (78%)
Writing library : x264 core 67 r1162M f7bfcfa
Encoding settings : cabac=1 / ref=4 / deblock=1:4:4 / analyse=0x3:0x133 / me=esa / subme=9 / psy_rd=1.0:0.0 / mixed_ref=1 / me_range=16 / chroma_me=1 / trellis=2 / 8x8dct=1 / cqm=0 / deadzone=21,11 / chroma_qp_offset=-2 / threads=6 / nr=0 / decimate=1 / mbaff=0 / bframes=4 / b_pyramid=0 / b_adapt=2 / b_bias=0 / direct=3 / wpredb=1 / keyint=250 / keyint_min=25 / scenecut=40 / rc=2pass / bitrate=6112 / ratetol=1.0 / qcomp=0.60 / qpmin=10 / qpmax=51 / qpstep=4 / cplxblur=20.0 / qblur=0.5 / vbv_maxrate=25000 / vbv_bufsize=25000 / ip_ratio=1.40 / pb_ratio=1.30 / aq=1:1.00

Audio
ID : 2
Format : DTS
Format/Info : Digital Theater Systems
Codec ID : A_DTS
Duration : 1h 13mn
Bit rate mode : Constant
Bit rate : 1 510 Kbps
Channel(s) : 6 channels
Channel positions : Front: L C R, Side: L R, LFE
Sampling rate : 48.0 KHz
Bit depth : 24 bits
Compression mode : Lossy
Stream size : 789 MiB (20%)

Text
ID : 3
Format : UTF-8
Codec ID : S_TEXT/UTF8
Codec ID/Info : UTF-8 Plain Text

Menu
00:00:00.000 : en:00:00:00.000
00:07:42.837 : en:00:07:42.837
00:10:33.383 : en:00:10:33.383
00:15:22.880 : en:00:15:22.880
00:17:25.503 : en:00:17:25.503
00:23:40.628 : en:00:23:40.628
00:27:50.502 : en:00:27:50.502
00:32:21.273 : en:00:32:21.273
00:36:13.546 : en:00:36:13.546
00:41:48.297 : en:00:41:48.297
00:46:26.784 : en:00:46:26.784
00:49:49.028 : en:00:49:49.028
00:54:36.857 : en:00:54:36.857
00:57:56.973 : en:00:57:56.973
01:05:17.789 : en:01:05:17.789
01:10:10.748 : en:01:10:10.748