Telecharger Les Vengeurs Ultimate [BLURAY 720p] French

(TRUEFRENCH = Vraie voix française)

BLURAY 720p | TRUEFRENCH

Les Vengeurs Ultimate

Les Vengeurs Ultimate

Les Vengeurs Ultimate

Origine du film : Américain
Réalisateur : Bob Richardson, Steven E. Gordon, Curt Geda
Acteurs : Justin Gross, Grey Delisle, Michael Massee
Genre : Animation
Durée : 1h 15min
Année de production : 2005
Titre Original : Ultimate Avengers
Distribué par : Metropolitan FilmExport
Note presse : Les Vengeurs Ultimate 3,7/5
Note spectateurs : Les Vengeurs Ultimate 3,7/5 (36)

Les Vengeurs Ultimate

Pour faire face à une menace extraterrestre, une équipe de super-héros est créée et menée par le Capitaine America

Nom de la release : Ultimate.Avengers.TRUEFRENCH.720p.DTS.Bluray.X264-RLD 17316″ style= »display:inline; »>

Qualité : BLURAY 720p
Format : MKV
Langue : Français
Découpé avec : Winrar
Nombre de fichiers : 4 Fichiers
Taille des fichiers : 999 Mo Mo
Taille totale : 999 Mo

[Liens Interchangeables]

1fichier.com
Télécharger

Uptobox.com
Télécharger

Free
Télécharger

Uploaded.net
Télécharger

Rapidgator.net
Télécharger

TurboBit.net
Télécharger

[ 1 lien Premium ]

Uptobox.com Premium
Télécharger

Bayfiles Premium
Télécharger

1fichier.com Premium
Télécharger

Uploaded.net Premium
Télécharger

Free Premium
Télécharger

TurboBit.net Premium
Télécharger

DepositFiles Premium
Télécharger

NFO :

Afficher / Masquer le texte f54b94a2071c8a7e1462b05eae312dbf » class= »text_spoiler » style= »display:none; »>Console
General
Complete name : Ultimate.Avengers.TRUEFRENCH.720p.DTS.Bluray.X264-RLD.mkv
Format : Matroska
File size : 3.89 GiB
Duration : 1h 11mn
Overall bit rate : 7 783 Kbps
Encoded date : UTC 2003-04-09 03:36:19
Writing application : mkvmerge v2.4.2 ('Oh My God') built on Jan 18 2009 17:30:28
Writing library : libebml v0.7.7 libmatroska v0.8.1

Video
ID : 1
Format : AVC
Format/Info : Advanced Video Codec
Format profile : [email protected]
Format settings, CABAC : Yes
Format settings, ReFrames : 4 frames
Codec ID : V_MPEG4/ISO/AVC
Duration : 1h 11mn
Bit rate mode : Variable
Bit rate : 6 272 Kbps
Maximum bit rate : 25.0 Mbps
Width : 1 280 pixels
Height : 720 pixels
Display aspect ratio : 16:9
Frame rate : 23.976 fps
Color space : YUV
Chroma subsampling : 4:2:0
Bit depth : 8 bits
Scan type : Progressive
Bits/(Pixel*Frame) : 0.284
Stream size : 3.06 GiB (79%)
Writing library : x264 core 67 r1162M f7bfcfa
Encoding settings : cabac=1 / ref=4 / deblock=1:4:4 / analyse=0x3:0x133 / me=esa / subme=9 / psy_rd=1.0:0.0 / mixed_ref=1 / me_range=16 / chroma_me=1 / trellis=2 / 8x8dct=1 / cqm=0 / deadzone=21,11 / chroma_qp_offset=-2 / threads=6 / nr=0 / decimate=1 / mbaff=0 / bframes=4 / b_pyramid=0 / b_adapt=2 / b_bias=0 / direct=3 / wpredb=1 / keyint=250 / keyint_min=25 / scenecut=40 / rc=2pass / bitrate=6272 / ratetol=1.0 / qcomp=0.60 / qpmin=10 / qpmax=51 / qpstep=4 / cplxblur=20.0 / qblur=0.5 / vbv_maxrate=25000 / vbv_bufsize=25000 / ip_ratio=1.40 / pb_ratio=1.30 / aq=1:1.00

Audio
ID : 2
Format : DTS
Format/Info : Digital Theater Systems
Codec ID : A_DTS
Duration : 1h 11mn
Bit rate mode : Constant
Bit rate : 1 510 Kbps
Channel(s) : 6 channels
Channel positions : Front: L C R, Side: L R, LFE
Sampling rate : 48.0 KHz
Bit depth : 24 bits
Compression mode : Lossy
Stream size : 773 MiB (19%)

Text
ID : 3
Format : UTF-8
Codec ID : S_TEXT/UTF8
Codec ID/Info : UTF-8 Plain Text

Menu
00:00:00.000 : en:00:00:00.000
00:05:48.181 : en:00:05:48.181
00:09:19.392 : en:00:09:19.392
00:13:47.535 : en:00:13:47.535
00:17:25.503 : en:00:17:25.503
00:21:42.968 : en:00:21:42.968
00:25:50.632 : en:00:25:50.632
00:30:18.650 : en:00:30:18.650
00:34:10.966 : en:00:34:10.966
00:38:57.001 : en:00:38:57.001
00:43:44.288 : en:00:43:44.288
00:48:18.312 : en:00:48:18.312
00:53:08.143 : en:00:53:08.143
00:59:27.314 : en:00:59:27.314
01:04:31.284 : en:01:04:31.284
01:07:31.756 : en:01:07:31.756

Jeux Gratuit
15354131_1854970838071206_1069261547_o.png