Telecharger Les Visiteurs [BLURAY 720p] French

BLURAY 720p | FRENCH | DTS

Les Visiteurs

Les Visiteurs

Les Visiteurs

Origine du film : Français
Réalisateur : Jean-Marie Poiré
Acteurs : Jean Reno, Christian Clavier, Valérie Lemercier
Genre : Comédie
Durée : 1h 45min
Date de sortie : 27 janvier 1993
Année de production : 1993
Note presse : Les Visiteurs 3,5/5
Note spectateurs : Les Visiteurs 3,5/5 (21940)

Les Visiteurs

Comment en l’an de grace 1112 le comte de Montmirail et son fidele ecuyer, Jacquouille la Fripouille, vont se retrouver propulses en l’an 1992 apres avoir bu une potion magique fabriquee par l’enchanteur Eusaebius leur permettant de se defaire d’un terrible sort..

Nom de la release : Les.Visiteurs.French.DTS.Bluray.720p.x264-wazatt 12443″ style= »display:inline; »>

Qualité : BLURAY 720p
Format : MKV
Langue : Français
Découpé avec : Winrar
Nombre de fichiers : 6 Fichiers
Taille des fichiers : 950 Mo 825 Mo
Taille totale : 5575 Mo

[Liens Interchangeables]

Uptobox
Télécharger

Uplea
Télécharger

1fichier
Télécharger

Free
Télécharger

Uploaded
Télécharger

TurboBit
Télécharger

[ 1 lien Premium – 5,4 Go]

Uptobox
Télécharger

Uplea
Télécharger

1fichier
Télécharger

Free
Télécharger

TurboBit
Télécharger

NFO :

Afficher / Masquer le texte 84475db9c141fdf9e2b3be9764c5b404″ class= »text_spoiler » style= »display:none; »>Les Visiteurs French dts 720p-wazatt.mkv

Format : Matroska
File size : 5.41 GiB
Duration : 1h 46mn
Overall bit rate : 7 253 Kbps
Encoded date : UTC 2012-05-11 12:28:58
Writing application : mkvmerge v5.5.0 ('Healer') built on Apr 6 2012 21:43:24
Writing library : libebml v1.2.3 libmatroska v1.3.0

Video
ID : 1
Format : AVC
Format/Info : Advanced Video Codec
Format profile : [email protected]
Format settings, CABAC : Yes
Format settings, ReFrames : 6 frames
Format settings, GOP : M=1, N=4
Codec ID : V_MPEG4/ISO/AVC
Duration : 1h 46mn
Bit rate mode : Variable
Bit rate : 5 599 Kbps
Maximum bit rate : 40.0 Mbps
Width : 1 280 pixels
Height : 720 pixels
Display aspect ratio : 16:9
Frame rate mode : Variable
Frame rate : 24.000 fps
Color space : YUV
Chroma subsampling : 4:2:0
Bit depth : 8 bits
Scan type : Progressive
Bits/(Pixel*Frame) : 0.253
Stream size : 4.17 GiB (77%)
Title : Les Visiteurs
Writing library : x264 core 120 r2120 0c7dab9
Encoding settings : cabac=1 / ref=6 / deblock=1:-3:-3 / analyse=0x3:0x113 / me=umh / subme=10 / psy=1 / psy_rd=1.00:0.25 / mixed_ref=1 / me_range=64 / chroma_me=1 / trellis=2 / 8x8dct=1 / cqm=0 / deadzone=6,6 / fast_pskip=0 / chroma_qp_offset=-4 / threads=6 / sliced_threads=0 / nr=0 / decimate=1 / interlaced=0 / bluray_compat=0 / constrained_intra=0 / bframes=5 / b_pyramid=2 / b_adapt=2 / b_bias=0 / direct=3 / weightb=1 / open_gop=1 / weightp=2 / keyint=250 / keyint_min=25 / scenecut=40 / intra_refresh=0 / rc_lookahead=250 / rc=crf / mbtree=1 / crf=19.0 / qcomp=0.75 / qpmin=0 / qpmax=51 / qpstep=4 / ip_ratio=1.40 / aq=2:1.0
Language : French

Audio
ID : 2
Format : DTS
Format/Info : Digital Theater Systems
Muxing mode : Header stripping
Codec ID : A_DTS
Duration : 1h 46mn
Bit rate mode : Constant
Bit rate : 1 510 Kbps
Channel(s) : 6 channels
Channel positions : Front: L C R, Side: L R, LFE
Sampling rate : 48.0 KHz
Bit depth : 24 bits
Compression mode : Lossy
Delay relative to video : 500ms
Stream size : 1.13 GiB (21%)
Title : DTS Audio 5.1 / 48 kHz / 1510 kbps / 24-bit
Language : French

Text
ID : 3
Format : UTF-8
Codec ID : S_TEXT/UTF8
Codec ID/Info : UTF-8 Plain Text
Title : sous titres forcΘs srt
Language : French

Menu
00:00:00.000 : en:00:00:00.000
00:04:59.125 : en:00:04:59.125
00:06:17.417 : en:00:06:17.417
00:10:07.125 : en:00:10:07.125
00:14:34.542 : en:00:14:34.542
00:18:20.917 : en:00:18:20.917
00:22:16.875 : en:00:22:16.875
00:25:13.333 : en:00:25:13.333
00:29:37.792 : en:00:29:37.792
00:33:15.792 : en:00:33:15.792
00:35:24.667 : en:00:35:24.667
00:38:21.042 : en:00:38:21.042
00:42:04.042 : en:00:42:04.042
00:53:32.833 : en:00:53:32.833
00:59:41.542 : en:00:59:41.542
01:02:28.000 : en:01:02:28.000
01:10:19.417 : en:01:10:19.417
01:16:14.167 : en:01:16:14.167
01:21:41.958 : en:01:21:41.958
01:25:12.667 : en:01:25:12.667
01:29:47.542 : en:01:29:47.542
01:31:47.583 : en:01:31:47.583
01:35:07.708 : en:01:35:07.708
01:40:34.458 : en:01:40:34.458
01:43:21.125 : en:01:43:21.125

Jeux Gratuit
15354131_1854970838071206_1069261547_o.png