Télécharger Les Visiteurs d'un autre monde

Qualité DVDRiP mkv | MULTiLANGUES

Les Visiteurs d'un autre monde

Les Visiteurs d'un autre monde

Origine du film : Américain
Réalisateur : John Hough
Acteurs : Bette Davis, Christopher Lee, Kim Richards
Genre : Aventure, Science fiction
Durée : 1h33min
Date de sortie : novembre 1978
Année de production : 1978
Titre Original : Return from Witch Mountain
Note spectateurs : Les Visiteurs d'un autre monde 2,8/5 (16)

Les Visiteurs d'un autre monde

Tia et son frère Tony, deux adolescents dotés de pouvoirs surnaturels, quittent leur refuge de la montagne ensorcelée pour faire un tour sur Terre. Mais Tony est kidnappé par le docteur Gannon, un savant fou qui veut dominer l’humanité, aidée de son assistante Letha. Alliée à un gang d’enfants des rues, Tia se lance à son secours…
97546″ style= »display:inline; »>

Les Visiteurs d'un autre monde

Format : MKV

Les Visiteurs d'un autre monde

Les Visiteurs d’un autre monde 1978 MULTI.DVDRIP.x264.AC3-HuSh

(1370 Mo)

Uptobox
Télécharger

Uploaded
Télécharger

TurboBit
Télécharger

Rapidgator
Télécharger

Uplea
Télécharger

1fichier
Télécharger

NFO :

Afficher / Masquer le texte 0d82f693cdc10debd9869299b0019807″ class= »text_spoiler » style= »display:none; »>■General

Unique ID : 215246433397185413048209531544716230487 (0xA1EEF484B98A4DBA9C47732B57ECBF57)

Complete name : G:TorrentLes.Visiteurs.D.Un.Autre.Monde.1978.MULTI.DVDRIP.x264.AC3-HuShLes.Visiteurs.D.Un.Autre.Monde.1978.MULTI.DVDRIP.x264.AC3-HuSh.mkv

Format : Matroska

Format version : Version 2

File size : 1.37 GiB

Duration : 1h 33mn

Overall bit rate mode : Variable

Overall bit rate : 2 091 Kbps

Movie name : Les.Visiteurs.D.Un.Autre.Monde.1978.MULTI.DVDRIP.x264.AC3-HuSh

Encoded date : UTC 2015-01-15 19:09:43

Writing application : mkvmerge v5.8.0 (‘No Sleep / Pillow’) built on Sep 2 2012 15:37:04

Writing library : libebml v1.2.3 + libmatroska v1.3.0

Video

ID : 1

Format : AVC

Format/Info : Advanced Video Codec

Format profile : [email protected]

Format settings, CABAC : Yes

Format settings, ReFrames : 8 frames

Muxing mode : Header stripping

Codec ID : V_MPEG4/ISO/AVC

Duration : 1h 33mn

Bit rate mode : Variable

Bit rate : 1 449 Kbps

Maximum bit rate : 17.5 Mbps

Width : 704 pixels

Height : 400 pixels

Display aspect ratio : 16:9

Frame rate mode : Constant

Frame rate : 29.970 fps

Color space : YUV

Chroma subsampling : 4:2:0

Bit depth : 8 bits

Scan type : Progressive

Bits/(Pixel*Frame) : 0.172

Stream size : 945 MiB (67%)

Writing library : x264 core 142 r2479

Encoding settings : cabac=1 / ref=8 / deblock=1:-1:-1 / analyse=0x3:0x133 / me=umh / subme=9 / psy=1 / psy_rd=1.00:0.00 / mixed_ref=1 / me_range=32 / chroma_me=1 / trellis=2 / 8x8dct=1 / cqm=0 / deadzone=21,11 / fast_pskip=0 / chroma_qp_offset=-2 / threads=6 / lookahead_threads=1 / sliced_threads=0 / nr=0 / decimate=1 / interlaced=0 / bluray_compat=0 / constrained_intra=0 / bframes=3 / b_pyramid=2 / b_adapt=2 / b_bias=0 / direct=3 / weightb=1 / open_gop=0 / weightp=2 / keyint=290 / keyint_min=29 / scenecut=40 / intra_refresh=0 / rc_lookahead=60 / rc=2pass / mbtree=1 / bitrate=1449 / ratetol=1.0 / qcomp=0.60 / qpmin=10 / qpmax=69 / qpstep=4 / cplxblur=20.0 / qblur=0.5 / vbv_maxrate=17500 / vbv_bufsize=17500 / nal_hrd=vbr / filler=0 / ip_ratio=1.40 / aq=1:1.00

Default : Yes

Forced : No

Audio #1

ID : 2

Format : AC-3

Format/Info : Audio Coding 3

Mode extension : CM (complete main)

Format settings, Endianness : Big

Muxing mode : Header stripping

Codec ID : A_AC3

Duration : 1h 33mn

Bit rate mode : Constant

Bit rate : 192 Kbps

Channel(s) : 2 channels

Channel positions : Front: L R

Sampling rate : 48.0 KHz

Compression mode : Lossy

Delay relative to video : 1s 129ms

Stream size : 129 MiB (9%)

Title : AC3 – 2 Canaux

Language : French

Default : Yes

Forced : No

Audio #2

ID : 3

Format : AC-3

Format/Info : Audio Coding 3

Mode extension : CM (complete main)

Format settings, Endianness : Big

Muxing mode : Header stripping

Codec ID : A_AC3

Duration : 1h 33mn

Bit rate mode : Constant

Bit rate : 448 Kbps

Channel(s) : 6 channels

Channel positions : Front: L C R, Side: L R, LFE

Sampling rate : 48.0 KHz

Compression mode : Lossy

Delay relative to video : 1s 129ms

Stream size : 300 MiB (21%)

Title : AC3 – 6 Canaux

Language : English

Default : No

Forced : No

Text #1

ID : 4

Format : UTF-8

Codec ID : S_TEXT/UTF8

Codec ID/Info : UTF-8 Plain Text

Title : Franτais

Language : French

Default : No

Forced : No

Text #2

ID : 5

Format : SSA

Codec ID : S_TEXT/SSA

Codec ID/Info : Sub Station Alpha

Compression mode : Lossless

Default : Yes

Forced : No